Вы используете незарегистрированную версию компонента "Вкладки"!

Поиск

(Avant-Garde Jazz, Free Improvisation) [CD] Subtle Lip Can (Bernard Falaise, Isaiah Ceccarelli, Joshua Zubot) - Subtle Lip Can - 2010, FLAC (tracks+.cue), lossless

(Avant-Garde Jazz, Free Improvisation) [CD] Subtle Lip Can (Bernard Falaise, Isaiah Ceccarelli, Joshua Zubot) - Subtle Lip Can - 2010, FLAC (tracks+.cue), lossless
Треклист:
Subtle Lip Can / Subtle Lip Can
Жанр: Avant-Garde Jazz, Free Improvisation
Носитель: CD
Страна-производитель диска (релиза): Canada
Год издания: 2010
Издатель (лейбл): Drip Audio
Номер по каталогу: DA00646
Страна исполнителя (группы): Canada
Аудиокодек: FLAC (*.flac)
Тип рипа: tracks+.cue
Битрейт аудио: lossless
Продолжительность: 43:14
Источник (релизер): свой фирменный диск
Наличие сканов в содержимом раздачи:
Треклист:
1. Chickle That Bottom
2. Crumple, Power Down
3. Inside Look
4. Tid Lac Boam
5. Suddle Lip Can
6. Runst From Thag
7. Crumpled Up Seed
8. Polloer
 
Лог создания рипа
Exact Audio Copy V1.0 beta 3 from 29. August 2011
EAC extraction logfile from 24. September 2014, 15:08
Subtle Lip Can / Subtle Lip Can
Used drive : PIONEER DVD-RW DVR-115D Adapter: 0 ID: 0
Read mode : Secure
Utilize accurate stream : Yes
Defeat audio cache : Yes
Make use of C2 pointers : No
Read offset correction : 48
Overread into Lead-In and Lead-Out : No
Fill up missing offset samples with silence : Yes
Delete leading and trailing silent blocks : No
Null samples used in CRC calculations : Yes
Used interface : Installed external ASPI interface
Gap handling : Appended to previous track
Used output format : User Defined Encoder
Selected bitrate : 768 kBit/s
Quality : High
Add ID3 tag : No
Command line compressor : C:\Program Files\Exact Audio Copy\Flac\flac.exe
Additional command line options : -6 -V -T "ARTIST=%artist%" -T "TITLE=%title%" -T "ALBUM=%albumtitle%" -T "DATE=%year%" -T "TRACKNUMBER=%tracknr%" -T "GENRE=%genre%" -T "COMMENT=%comment%" -T "BAND=%albuminterpret%" -T "COMPOSER=%composer%" %haslyrics%--tag-from-file=LYRICS="%lyricsfile%"%haslyrics% -T "DISCNUMBER=%cdnumber%" -T "TOTALDISCS=%totalcds%" -T "TOTALTRACKS=%numtracks%" %hascover%--picture="%coverfile%"%hascover% %source% -o %dest%
TOC of the extracted CD
Track | Start | Length | Start sector | End sector
---------------------------------------------------------
1 | 0:00.00 | 3:53.37 | 0 | 17511
2 | 3:53.37 | 4:22.44 | 17512 | 37205
3 | 8:16.06 | 5:42.33 | 37206 | 62888
4 | 13:58.39 | 6:04.22 | 62889 | 90210
5 | 20:02.61 | 9:17.66 | 90211 | 132051
6 | 29:20.52 | 3:47.39 | 132052 | 149115
7 | 33:08.16 | 5:35.34 | 149116 | 174274
8 | 38:43.50 | 4:30.26 | 174275 | 194550
Track 1
Filename D:\zzz\01 - Chickle that Bottom.wav
Pre-gap length 0:00:02.00
Peak level 88.2 %
Extraction speed 4.5 X
Track quality 100.0 %
Test CRC 36A5EB56
Copy CRC 36A5EB56
Accurately ripped (confidence 1) [34665328] (AR v2)
Copy OK
Track 2
Filename D:\zzz\02 - Crumple, Power Down.wav
Pre-gap length 0:00:01.39
Peak level 96.4 %
Extraction speed 4.5 X
Track quality 99.9 %
Test CRC 7BE886D6
Copy CRC 7BE886D6
Accurately ripped (confidence 1) [E4883912] (AR v2)
Copy OK
Track 3
Filename D:\zzz\03 - Inside Look.wav
Pre-gap length 0:00:02.02
Peak level 93.2 %
Extraction speed 5.7 X
Track quality 100.0 %
Test CRC 52155B44
Copy CRC 52155B44
Accurately ripped (confidence 1) [47D9514C] (AR v2)
Copy OK
Track 4
Filename D:\zzz\04 - Tid Lac Boam.wav
Pre-gap length 0:00:02.22
Peak level 94.2 %
Extraction speed 6.3 X
Track quality 100.0 %
Test CRC 6B7B7EA7
Copy CRC 6B7B7EA7
Accurately ripped (confidence 1) [FCADCA1C] (AR v2)
Copy OK
Track 5
Filename D:\zzz\05 - Suddle Lip Can.wav
Pre-gap length 0:00:00.44
Peak level 96.3 %
Extraction speed 7.1 X
Track quality 100.0 %
Test CRC 0188463D
Copy CRC 0188463D
Accurately ripped (confidence 1) [D823468B] (AR v2)
Copy OK
Track 6
Filename D:\zzz\06 - Runst From Thag.wav
Pre-gap length 0:00:01.62
Peak level 95.4 %
Extraction speed 6.9 X
Track quality 100.0 %
Test CRC 33FF9BB8
Copy CRC 33FF9BB8
Accurately ripped (confidence 1) [CC660639] (AR v2)
Copy OK
Track 7
Filename D:\zzz\07 - Crumpled Up Seed.wav
Pre-gap length 0:00:02.46
Peak level 95.0 %
Extraction speed 7.6 X
Track quality 100.0 %
Test CRC 0A4D60C2
Copy CRC 0A4D60C2
Accurately ripped (confidence 1) [B21B4BF1] (AR v2)
Copy OK
Track 8
Filename D:\zzz\08 - Polloer.wav
Pre-gap length 0:00:02.34
Peak level 73.6 %
Extraction speed 7.7 X
Track quality 100.0 %
Test CRC 7114D0D1
Copy CRC 7114D0D1
Accurately ripped (confidence 1) [D20F0B94] (AR v2)
Copy OK
All tracks accurately ripped
No errors occurred
End of status report
==== Log checksum F30A35CFC015EDB05453F2C24E9CC3DE98639C605F2ED84AFD216409B67EAD89 ====
 
Содержание индексной карты (.CUE)
REM GENRE "Free Improvisation"
REM DATE 2010
REM DISCID 630A2208
REM COMMENT "ExactAudioCopy v1.0b3"
PERFORMER "Subtle Lip Can"
TITLE "Subtle Lip Can"
FILE "01 - Chickle that Bottom.wav" WAVE
TRACK 01 AUDIO
TITLE "Chickle that Bottom"
PERFORMER "Subtle Lip Can"
INDEX 01 00:00:00
TRACK 02 AUDIO
TITLE "Crumple, Power Down"
PERFORMER "Subtle Lip Can"
INDEX 00 03:51:73
FILE "02 - Crumple, Power Down.wav" WAVE
INDEX 01 00:00:00
TRACK 03 AUDIO
TITLE "Inside Look"
PERFORMER "Subtle Lip Can"
INDEX 00 04:20:42
FILE "03 - Inside Look.wav" WAVE
INDEX 01 00:00:00
TRACK 04 AUDIO
TITLE "Tid Lac Boam"
PERFORMER "Subtle Lip Can"
INDEX 00 05:40:11
FILE "04 - Tid Lac Boam.wav" WAVE
INDEX 01 00:00:00
TRACK 05 AUDIO
TITLE "Suddle Lip Can"
PERFORMER "Subtle Lip Can"
INDEX 00 06:03:53
FILE "05 - Suddle Lip Can.wav" WAVE
INDEX 01 00:00:00
TRACK 06 AUDIO
TITLE "Runst From Thag"
PERFORMER "Subtle Lip Can"
INDEX 00 09:16:04
FILE "06 - Runst From Thag.wav" WAVE
INDEX 01 00:00:00
TRACK 07 AUDIO
TITLE "Crumpled Up Seed"
PERFORMER "Subtle Lip Can"
INDEX 00 03:44:68
FILE "07 - Crumpled Up Seed.wav" WAVE
INDEX 01 00:00:00
TRACK 08 AUDIO
TITLE "Polloer"
PERFORMER "Subtle Lip Can"
INDEX 00 05:33:00
FILE "08 - Polloer.wav" WAVE
INDEX 01 00:00:00
 
Лог проверки качества
d:\>d:\aucdtect -d/-m0 d:\zzz\*.wav
auCDtect: CD records authenticity detector, version 0.8.2
Copyright (c) 2004 Oleg Berngardt. All rights reserved.
Copyright (c) 2004 Alexander Djourik. All rights reserved.
------------------------------------------------------------
Processing file: [01. Chickle that Bottom.wav]
------------------------------------------------------------
This track looks like CDDA with probability 100%
------------------------------------------------------------
Processing file: [02. Crumple, Power Down.wav]
------------------------------------------------------------
This track looks like CDDA with probability 99%
------------------------------------------------------------
Processing file: [03. Inside Look.wav]
------------------------------------------------------------
This track looks like CDDA with probability 99%
------------------------------------------------------------
Processing file: [04. Tid Lac Boam.wav]
------------------------------------------------------------
This track looks like CDDA with probability 100%
------------------------------------------------------------
Processing file: [05. Suddle Lip Can.wav]
------------------------------------------------------------
This track looks like CDDA with probability 100%
------------------------------------------------------------
Processing file: [06. Runst From Thag.wav]
------------------------------------------------------------
This track looks like CDDA with probability 100%
------------------------------------------------------------
Processing file: [07. Crumpled Up Seed.wav]
------------------------------------------------------------
This track looks like CDDA with probability 100%
------------------------------------------------------------
Processing file: [08. Polloer.wav]
------------------------------------------------------------
This track looks like CDDA with probability 100%
------------------------------------------------------------
Final Conclusion:
------------------------------------------------------------
These tracks looks like CDDA with probability 100%
Доп. информация:
 
Album & Artist Info
All pieces C/F/Z
Produced by Zubot / Ceccarelli / Falaise and Drip Audio
Recorded by Fred Boudreault
Mastered by Jesse Zubot
Artwork & design by Andy Dixon
This recording was made possible through the assistance of the Canada Music Fund and the Music Section of the Canada Council for the Arts
Subtle Lip Can was formed on a cold Tuesday night during ‘Mardi Spaghetti’, a Montréal improvisational music series at the venue Le Cagibi. The music created by these three comrades felt so fresh, new and natural that they decided on the spot to continue playing together. The trio consists of Isaiah Ceccarelli (percussion), Bernard Falaise (electric guitar) and Josh Zubot (violin). All three are active members of Montréal’s fervent improvisational community. The textures they create are unique, rich and cover a wide dynamic scope, from contemplative soundscapes to frantic climaxes. This is their first album as a trio and was made live in Frédéric Boudreault's studio on Avenue Papineau.
Isaiah Ceccarelli is a drummer, improviser, composer and singer living and working in Montréal. He participates in numerous creative music projects with artists including Michel F. Côté, Pierre-Yves Martel, Lori Freedman, Jean Derome and Philippe Lauzier. Isaiah composes for his own groups (Bréviaire d’épuisements, Lieux-dits, De cælo servare) and for ensembles and musicians such as VivaVoce, Ensemble Kô, Jennifer Thiessen, Charity Chan and the University of Redlands New Music Ensemble (California).
Composer, improviser and guitarist Bernard Falaise has some surprisingly varied musical activities, from pop album production (Marie-Jo Thério, Jorane) to contemporary music composition. This Montrealer is a member of several bands including Klaxon Gueule, Papaboa, Miriodor, Les Projectionnistes and Barnyard Drama. Mr. Falaise's second solo cd, Clic(2007), consists of compositions for a band and won the best new music record Opus award in 2008.
Joshua Zubot grew up in Saskatchewan and at one time worked the music scene in Calgary, AB. He then decided to move to Montréal to complete his BFA in Electroacoustic composition. He has shared the stage with artists such as Jean Derome, Myra Melford, Sam Shalabi, Fred Frith, Martha Wainwright, Lori Freedman and many others. Joshua is one of the founders of Montreal's weekly improvised music series 'Mardi Spaghetti'. - Drip Audio
 
Состав
Isaiah Ceccarelli: percussion, piano
Bernard Falaise: guitar
Joshua Zubot: violin, low octave violin
По всем вопросам пишите личное сообщение пользователю M0p94ok.
07:09
173
Нет комментариев. Ваш будет первым!