Поиск

(Avant-Garde Jazz, Experimental, Free Improvisation, Intakt) [CD] Eugene Chadbourne - End To Slavery - 1997, FLAC (tracks+.cue), lossless

(Avant-Garde Jazz, Experimental, Free Improvisation, Intakt) [CD] Eugene Chadbourne - End To Slavery - 1997, FLAC (tracks+.cue), lossless
Издатель (лейбл):
Eugene Chadbourne / End To Slavery
Жанр: Avant-Garde Jazz, Experimental, Free Improvisation, Intakt
Носитель: CD
Страна-производитель диска (релиза): Switzerland
Год издания: 1997
Издатель (лейбл): Intakt Records
Номер по каталогу: Intakt CD 047
Страна исполнителя (группы): US
Аудиокодек: FLAC (*.flac)
Тип рипа: tracks+.cue
Битрейт аудио: lossless
Продолжительность: 67:49
Источник (релизер): waffles.fm
Наличие сканов в содержимом раздачи:
Треклист:
1 Amber 6:59
2 Naima 7:12
3 Misty, I Know You're Misty 'Cus You Miss Me When I'm Gone 3:39
4 Shreeve's Heaven 3:36
5 Grey Skies Are Just Clouds Passing Over 5:24
6 Oil Of Hate 6:34
7 Imitation Of Astral Traveling 7:28
8 That's That 3:04
9 A Stone From Every River 13:41
Symphony Of Weirdness 4:33
10a Presto
10b Acarrot
10c Con Gas
10d Adagio
-
11 End To Slavery 5:28
 
Лог создания рипа
Exact Audio Copy V0.99 prebeta 4 from 23. January 2008
EAC extraction logfile from 2. March 2009, 2:44
Eugene Chadbourne / End To Slavery
Used drive : TSSTcorpCDDVDW TS-L633L Adapter: 2 ID: 0
Read mode : Secure
Utilize accurate stream : Yes
Defeat audio cache : Yes
Make use of C2 pointers : No
Read offset correction : 6
Overread into Lead-In and Lead-Out : No
Fill up missing offset samples with silence : Yes
Delete leading and trailing silent blocks : No
Null samples used in CRC calculations : Yes
Used interface : Native Win32 interface for Win NT & 2000
Gap handling : Appended to previous track
Used output format : User Defined Encoder
Selected bitrate : 128 kBit/s
Quality : High
Add ID3 tag : No
Command line compressor : C:\Program Files\Exact Audio Copy\Flac\flac.exe
Additional command line options : -V -8 -T "artist=%a" -T "title=%t" -T "album=%g" -T "date=%y" -T "tracknumber=%n" -T "genre=%m" %s
TOC of the extracted CD
Track | Start | Length | Start sector | End sector
---------------------------------------------------------
1 | 0:00.00 | 6:59.62 | 0 | 31486
2 | 6:59.62 | 7:12.00 | 31487 | 63886
3 | 14:11.62 | 3:39.00 | 63887 | 80311
4 | 17:50.62 | 3:46.00 | 80312 | 97261
5 | 21:36.62 | 5:24.00 | 97262 | 121561
6 | 27:00.62 | 6:34.00 | 121562 | 151111
7 | 33:34.62 | 7:28.00 | 151112 | 184711
8 | 41:02.62 | 3:04.00 | 184712 | 198511
9 | 44:06.62 | 13:41.00 | 198512 | 260086
10 | 57:47.62 | 4:33.00 | 260087 | 280561
11 | 62:20.62 | 5:28.13 | 280562 | 305174
Track 1
Filename C:\EACrips\Eugene Chadbourne - 1997 - End To Slavery\01 - Amber .wav
Pre-gap length 0:00:02.00
Peak level 92.6 %
Track quality 100.0 %
Test CRC 0FEF5B4C
Copy CRC 0FEF5B4C
Track not present in AccurateRip database
Copy OK
Track 2
Filename C:\EACrips\Eugene Chadbourne - 1997 - End To Slavery\02 - Naima .wav
Peak level 48.5 %
Track quality 99.9 %
Test CRC F08A6CC9
Copy CRC F08A6CC9
Track not present in AccurateRip database
Copy OK
Track 3
Filename C:\EACrips\Eugene Chadbourne - 1997 - End To Slavery\03 - Misty, I Know Your Misty 'Cus You Miss Me When I'm Gone .wav
Peak level 81.2 %
Track quality 100.0 %
Test CRC 9638AAC1
Copy CRC 9638AAC1
Track not present in AccurateRip database
Copy OK
Track 4
Filename C:\EACrips\Eugene Chadbourne - 1997 - End To Slavery\04 - Shreeve's Heaven .wav
Peak level 93.1 %
Track quality 100.0 %
Test CRC 25C348DB
Copy CRC 25C348DB
Track not present in AccurateRip database
Copy OK
Track 5
Filename C:\EACrips\Eugene Chadbourne - 1997 - End To Slavery\05 - Grey Skies Are Just Clouds Passing Over .wav
Peak level 92.2 %
Track quality 100.0 %
Test CRC 487C0FC9
Copy CRC 487C0FC9
Track not present in AccurateRip database
Copy OK
Track 6
Filename C:\EACrips\Eugene Chadbourne - 1997 - End To Slavery\06 - Oil Of Hate .wav
Peak level 90.9 %
Track quality 100.0 %
Test CRC 86B6E14C
Copy CRC 86B6E14C
Track not present in AccurateRip database
Copy OK
Track 7
Filename C:\EACrips\Eugene Chadbourne - 1997 - End To Slavery\07 - Imitation Of Astral Traveling .wav
Peak level 92.7 %
Track quality 100.0 %
Test CRC 8415A73E
Copy CRC 8415A73E
Track not present in AccurateRip database
Copy OK
Track 8
Filename C:\EACrips\Eugene Chadbourne - 1997 - End To Slavery\08 - That's That .wav
Peak level 90.8 %
Track quality 100.0 %
Test CRC 878F84BF
Copy CRC 878F84BF
Track not present in AccurateRip database
Copy OK
Track 9
Filename C:\EACrips\Eugene Chadbourne - 1997 - End To Slavery\09 - A Stone From Every River .wav
Peak level 90.0 %
Track quality 100.0 %
Test CRC 9393D522
Copy CRC 9393D522
Track not present in AccurateRip database
Copy OK
Track 10
Filename C:\EACrips\Eugene Chadbourne - 1997 - End To Slavery\10 - Symphony Of Weirdness .wav
Peak level 96.1 %
Track quality 100.0 %
Test CRC 61200FCD
Copy CRC 61200FCD
Track not present in AccurateRip database
Copy OK
Track 11
Filename C:\EACrips\Eugene Chadbourne - 1997 - End To Slavery\11 - End To Slavery .wav
Peak level 91.8 %
Track quality 100.0 %
Test CRC 898434BE
Copy CRC 898434BE
Track not present in AccurateRip database
Copy OK
None of the tracks are present in the AccurateRip database
No errors occurred
End of status report
 
Содержание индексной карты (.CUE)
REM GENRE Jazz
REM DATE 1997
REM DISCID 950FE50B
REM COMMENT "ExactAudioCopy v0.99pb4"
PERFORMER "Eugene Chadbourne"
TITLE "End To Slavery"
FILE "01 - Amber .wav" WAVE
TRACK 01 AUDIO
TITLE "Amber"
PERFORMER "Eugene Chadbourne"
INDEX 01 00:00:00
FILE "02 - Naima .wav" WAVE
TRACK 02 AUDIO
TITLE "Naima"
PERFORMER "Eugene Chadbourne"
INDEX 01 00:00:00
FILE "03 - Misty, I Know Your Misty 'Cus You Miss Me When I'm Gone .wav" WAVE
TRACK 03 AUDIO
TITLE "Misty, I Know Your Misty 'Cus You Miss Me When I'm Gone"
PERFORMER "Eugene Chadbourne"
INDEX 01 00:00:00
FILE "04 - Shreeve's Heaven .wav" WAVE
TRACK 04 AUDIO
TITLE "Shreeve's Heaven"
PERFORMER "Eugene Chadbourne"
INDEX 01 00:00:00
FILE "05 - Grey Skies Are Just Clouds Passing Over .wav" WAVE
TRACK 05 AUDIO
TITLE "Grey Skies Are Just Clouds Passing Over"
PERFORMER "Eugene Chadbourne"
INDEX 01 00:00:00
FILE "06 - Oil Of Hate .wav" WAVE
TRACK 06 AUDIO
TITLE "Oil Of Hate"
PERFORMER "Eugene Chadbourne"
INDEX 01 00:00:00
FILE "07 - Imitation Of Astral Traveling .wav" WAVE
TRACK 07 AUDIO
TITLE "Imitation Of Astral Traveling"
PERFORMER "Eugene Chadbourne"
INDEX 01 00:00:00
FILE "08 - That's That .wav" WAVE
TRACK 08 AUDIO
TITLE "That's That"
PERFORMER "Eugene Chadbourne"
INDEX 01 00:00:00
FILE "09 - A Stone From Every River .wav" WAVE
TRACK 09 AUDIO
TITLE "A Stone From Every River"
PERFORMER "Eugene Chadbourne"
INDEX 01 00:00:00
FILE "10 - Symphony Of Weirdness .wav" WAVE
TRACK 10 AUDIO
TITLE "Symphony Of Weirdness"
PERFORMER "Eugene Chadbourne"
INDEX 01 00:00:00
FILE "11 - End To Slavery .wav" WAVE
TRACK 11 AUDIO
TITLE "End To Slavery"
PERFORMER "Eugene Chadbourne"
INDEX 01 00:00:00
 
Лог проверки качества
d:\>d:\aucdtect -d/-m0 d:\zzz\*.wav
auCDtect: CD records authenticity detector, version 0.8.2
Copyright (c) 2004 Oleg Berngardt. All rights reserved.
Copyright (c) 2004 Alexander Djourik. All rights reserved.
------------------------------------------------------------
Processing file: [01. Amber.wav]
------------------------------------------------------------
This track looks like CDDA with probability 99%
------------------------------------------------------------
Processing file: [02. Naima.wav]
------------------------------------------------------------
This track looks like MPEG with probability 93%
------------------------------------------------------------
Processing file: [03. Misty, I Know Your Misty 'Cus You Miss Me When I'm Gone.wav]
------------------------------------------------------------
This track looks like CDDA with probability 100%
------------------------------------------------------------
Processing file: [04. Shreeve's Heaven.wav]
------------------------------------------------------------
This track looks like CDDA with probability 100%
------------------------------------------------------------
Processing file: [05. Grey Skies Are Just Clouds Passing Over.wav]
------------------------------------------------------------
This track looks like CDDA with probability 100%
------------------------------------------------------------
Processing file: [06. Oil Of Hate.wav]
------------------------------------------------------------
This track looks like CDDA with probability 100%
------------------------------------------------------------
Processing file: [07. Imitation Of Astral Traveling.wav]
------------------------------------------------------------
This track looks like CDDA with probability 100%
------------------------------------------------------------
Processing file: [08. That's That.wav]
------------------------------------------------------------
This track looks like CDDA with probability 100%
------------------------------------------------------------
Processing file: [09. A Stone From Every River.wav]
------------------------------------------------------------
This track looks like CDDA with probability 100%
------------------------------------------------------------
Processing file: [10. Symphony Of Weirdness.wav]
------------------------------------------------------------
This track looks like CDDA with probability 100%
------------------------------------------------------------
Processing file: [11. End To Slavery.wav]
------------------------------------------------------------
This track looks like CDDA with probability 100%
------------------------------------------------------------
Final Conclusion:
------------------------------------------------------------
These tracks looks like CDDA with probability 100%
Доп. информация:
 
AMG Review
These "Ends to Slavery" Eugene Chadbourne refers to in his title are just that: the pieces he played to end his own cultural and musical slavery. To this end, in the liner notes, he discusses -- sometimes at length -- what happens in particular works, or, more interestingly, what they're about and who they're for. The opening track, "Amber," is about a family cocker spaniel who had to be gassed because of her age -- and the fact that she was too old to go draft-dodging with the guitarist during the Nixon era. He puts the blood for the crime firmly where it belongs -- on Nixon. More importantly, he also discusses his use of Albert Ayler's folk melodies in the creation of the work, and through those movements he creates a textural dimension and soul that Chadbourne rings out of the guitar. His cover of Coltrane's "Naima" is, without question, a stunningly beautiful and deeply felt rendition that reveals great technical skill and emotional depth. The other element here is how inventive Chadbourne can make humor sound, as he does on the four-part suite "Symphony for Weirdness" that occurs in just over four-and-a-half-minutes with scraped surfaces, feedback, pluck,s and plonks, rattling microphones, and even chewing food. It's funny, yes, but awesome, too. Let's not forget "Oil of Hate," with its hilarious lyrics (unsung), and multi-tracked guitars that walk somewhere between a Spanish folk song and the blues -- kind of like Loren Mazzacane Connors but with lots of movement and a varied emotional palette. In sum, it's all Chadbourne doing what he does best: everything. He's not only a technical genius on his instrument, he's a menace to cultural snobbery at every turn.
 
Состав
Vocals, Guitar, Banjo, Plunger, Rake, Birdcage, Noises – Eugene Chadbourne
07:11
439
Нет комментариев. Ваш будет первым!