Вы используете незарегистрированную версию компонента "Вкладки"!

Поиск

(Free Jazz, British Jazz) [CD] Mike Osborne (w/ Dave Holdsworth, Marcio Mattos, Tony Marsh) - Force Of Nature (recorded 1980-81) - 2008, FLAC (tracks+.cue), lossless

(Free Jazz, British Jazz) [CD] Mike Osborne (w/ Dave Holdsworth, Marcio Mattos, Tony Marsh) - Force Of Nature (recorded 1980-81) - 2008, FLAC (tracks+.cue), lossless
Треклист:
Mike Osborne / Force Of Nature (recorded 1980-81)
Жанр: Free Jazz, British Jazz
Носитель: CD
Страна-производитель диска: Canada
Год издания: 2008
Издатель (лейбл): Reel Recordings
Номер по каталогу: RR 006
Страна: UK
Аудиокодек: FLAC (*.flac)
Тип рипа: tracks+.cue
Битрейт аудио: lossless
Продолжительность: 62:11
Источник (релизер): свой фирменный диск
Наличие сканов в содержимом раздачи:
Треклист:
1. Ducking & Diving
2. Journey's End
3. All Night Long
 
Лог создания рипа
Exact Audio Copy V1.0 beta 3 from 29. August 2011
EAC extraction logfile from 14. February 2014, 0:32
Mike Osborne / Force Of Nature
Used drive : PIONEER DVD-RW DVR-115D Adapter: 0 ID: 0
Read mode : Secure
Utilize accurate stream : Yes
Defeat audio cache : Yes
Make use of C2 pointers : No
Read offset correction : 48
Overread into Lead-In and Lead-Out : No
Fill up missing offset samples with silence : Yes
Delete leading and trailing silent blocks : No
Null samples used in CRC calculations : Yes
Used interface : Installed external ASPI interface
Gap handling : Appended to previous track
Used output format : User Defined Encoder
Selected bitrate : 896 kBit/s
Quality : High
Add ID3 tag : No
Command line compressor : C:\Program Files\Exact Audio Copy\FLAC\FLAC.EXE
Additional command line options : -6 -V -T "ARTIST=%artist%" -T "TITLE=%title%" -T "ALBUM=%albumtitle%" -T "DATE=%year%" -T "TRACKNUMBER=%tracknr%" -T "GENRE=%genre%" -T "COMMENT=%comment%" -T "BAND=%albuminterpret%" -T "COMPOSER=%composer%" %haslyrics%--tag-from-file=LYRICS="%lyricsfile%"%haslyrics% -T "DISCNUMBER=%cdnumber%" -T "TOTALDISCS=%totalcds%" -T "TOTALTRACKS=%numtracks%" %hascover%--picture="%coverfile%"%hascover% %source% -o %dest%
TOC of the extracted CD
Track | Start | Length | Start sector | End sector
---------------------------------------------------------
1 | 0:00.00 | 42:13.38 | 0 | 190012
2 | 42:13.38 | 7:57.32 | 190013 | 225819
3 | 50:10.70 | 12:00.41 | 225820 | 279860
Track 1
Filename D:\zzz\01 - Ducking & Diving.wav
Pre-gap length 0:00:02.00
Peak level 100.0 %
Extraction speed 6.5 X
Track quality 99.9 %
Test CRC C6819214
Copy CRC C6819214
Accurately ripped (confidence 1) [7903E063] (AR v1)
Copy OK
Track 2
Filename D:\zzz\02 - Journey's End.wav
Peak level 99.0 %
Extraction speed 7.6 X
Track quality 99.9 %
Test CRC 4F4FE97E
Copy CRC 4F4FE97E
Accurately ripped (confidence 1) [B64434CE] (AR v1)
Copy OK
Track 3
Filename D:\zzz\03 - All Night Long.wav
Peak level 100.0 %
Extraction speed 8.8 X
Track quality 100.0 %
Test CRC CADFEF9F
Copy CRC CADFEF9F
Accurately ripped (confidence 1) [1A26C194] (AR v1)
Copy OK
All tracks accurately ripped
No errors occurred
End of status report
==== Log checksum EBB0F47B59D39E54E65531E5B7632740157078164A0FD85A52A770F522364551 ====
 
Содержание индексной карты (.CUE)
REM GENRE "Free Jazz"
REM DATE 2008
REM DISCID 170E9303
REM COMMENT "ExactAudioCopy v1.0b3"
PERFORMER "Mike Osborne"
TITLE "Force Of Nature"
FILE "01 - Ducking & Diving.wav" WAVE
TRACK 01 AUDIO
TITLE "Ducking & Diving"
PERFORMER "Mike Osborne"
INDEX 01 00:00:00
FILE "02 - Journey's End.wav" WAVE
TRACK 02 AUDIO
TITLE "Journey's End"
PERFORMER "Mike Osborne"
INDEX 01 00:00:00
FILE "03 - All Night Long.wav" WAVE
TRACK 03 AUDIO
TITLE "All Night Long"
PERFORMER "Mike Osborne"
INDEX 01 00:00:00
 
Лог проверки качества
d:\>d:\aucdtect -d/-m0 d:\zzz\*.wav
auCDtect: CD records authenticity detector, version 0.8.2
Copyright (c) 2004 Oleg Berngardt. All rights reserved.
Copyright (c) 2004 Alexander Djourik. All rights reserved.
------------------------------------------------------------
Processing file: [01. Ducking & Diving.wav]
------------------------------------------------------------
This track looks like CDDA with probability 100%
------------------------------------------------------------
Processing file: [02. Journey's End.wav]
------------------------------------------------------------
This track looks like CDDA with probability 100%
------------------------------------------------------------
Processing file: [03. All Night Long.wav]
------------------------------------------------------------
This track looks like CDDA with probability 100%
------------------------------------------------------------
Final Conclusion:
------------------------------------------------------------
These tracks looks like CDDA with probability 100%
Доп. информация:
 
Album Info & AAJ Review
Kolner Jazzhaus Festival, Koln, Germany October 17th, 1980 (1)
Professional open reel recording at 7&1/2 IPS
Recorded live in London, April 27th, 1981 (2,3) by Terry Sullivan using Sony TC335 at 3&3/4 IPS
Special thanks to Andrey Henkin, Terry Evans, Hazel Miller, Dave Holdsworth, Louise Palmer, Terry Sullivan, Jak Kilby, Geoff Wall, Doug Shulkind
Audiophile remastered in real time
Glass mastered in real time
Produced in Canada by Michael King
Sound advice by Miki Dandy
All photos (C) Jak Kilby
Liner notes: Dave Holdsworth
The mercurial nature of alto saxophonist Mike Osborne's musical personality was arguably a difficult thing to capture on record, but here it's caught in all its glory despite the slightly muddy fidelity. Any degree to which he might have been in thrall to both Jackie McLean and Ornette Coleman was no longer an issue by the time these performances were captured back in 1980 and 1981, and the music has wings and a method of flight entirely its own.
"Ducking & Diving" makes the case for that over the course of forty two minutes. The quartet on occasion falls back upon melodies familiar enough to be hackneyed but only in the cause of recharging their creative batteries. Indeed it could almost be argued that they do so by way of wry comment on the level of creativity happening elsewhere. Osborne's understanding of pitch was always sure by comparison with McLean and the nature of his relationship to drummer Brian Abrahams on this one is on a par with the one he enjoyed with Louis Moholo. The very 'altoness' of his instrumental conception is true enough to render any thought of doubling as absurd and in that respect trumpeter Dave Holdsworth's more reflective, perhaps measured approach is the ideal foil.
By comparison of course the less than eight minutes of "Journey's End" is a relatively brief flight. It's long enough however for bassist Paul Bridge and drummer Tony Marsh to bring a different collective dynamic to the music, with Marsh's hyperactive bass drum not so much anchoring the music as contributing to a polyrhythmic foundation for Osborne and Holdsworth to fly over. If anything Holdsworth is less measured here, with a perhaps conscious smearing of his lines adding a further dimension to proceedings.
In its echoing of one of Coleman's lines "All Night Long" hints at a similarly ambivalent link with the post-bop tradition, and both Osborne and Holdworth show how 'outside' they are in those terms in their flights. Osborne in particular sounds agitated here, as if at one and the same time he's impatient with traditional turns yet also in thrall to them. The creative tension that suggests is a hallmark of this entire set.
 
Состав
'Ozzie': alto sax
Dave Holdsworth: trumpet
Marcio Mattos: bass (1)
Brian Abrahams: drums (1)
Paul Bridge: bass (2,3)
Tony Marsh: drums (2,3)
По всем вопросам пишите личное сообщение пользователю M0p94ok.
23:46
189
Нет комментариев. Ваш будет первым!