Вы используете незарегистрированную версию компонента "Вкладки"!

Поиск

(Free Jazz, British Jazz) [CD] Bob Downes Open Music (w/ Barry Guy, Brian Godding, John Stevens, Paul Rutherford) - Crossing Borders (recorded 1978-79) - 2009, FLAC (tracks+.cue), lossless

(Free Jazz, British Jazz) [CD] Bob Downes Open Music (w/ Barry Guy, Brian Godding, John Stevens, Paul Rutherford) - Crossing Borders (recorded 1978-79) - 2009, FLAC (tracks+.cue), lossless
Треклист:
Bob Downes Open Music / Crossing Borders (recorded 1978-79)
Жанр: Free Jazz, British Jazz
Носитель: CD
Страна-производитель диска: Canada
Год издания: 2009
Издатель (лейбл): Reel Recordings
Номер по каталогу: RR 011
Страна: UK
Аудиокодек: FLAC (*.flac)
Тип рипа: tracks+.cue
Битрейт аудио: lossless
Продолжительность: 56:11
Источник (релизер): свой фирменный диск
Наличие сканов в содержимом раздачи:
Треклист:
1. Jungle Chase
2. South American Indian
3. Sad Senorita
4. Che Guevera
5. Basking In The Sun
 
Лог создания рипа
Exact Audio Copy V1.0 beta 3 from 29. August 2011
EAC extraction logfile from 13. February 2014, 21:43
Bob Downes Open Music / Crossing Borders
Used drive : PIONEER DVD-RW DVR-115D Adapter: 0 ID: 0
Read mode : Secure
Utilize accurate stream : Yes
Defeat audio cache : Yes
Make use of C2 pointers : No
Read offset correction : 48
Overread into Lead-In and Lead-Out : No
Fill up missing offset samples with silence : Yes
Delete leading and trailing silent blocks : No
Null samples used in CRC calculations : Yes
Used interface : Installed external ASPI interface
Gap handling : Appended to previous track
Used output format : User Defined Encoder
Selected bitrate : 896 kBit/s
Quality : High
Add ID3 tag : No
Command line compressor : C:\Program Files\Exact Audio Copy\FLAC\FLAC.EXE
Additional command line options : -6 -V -T "ARTIST=%artist%" -T "TITLE=%title%" -T "ALBUM=%albumtitle%" -T "DATE=%year%" -T "TRACKNUMBER=%tracknr%" -T "GENRE=%genre%" -T "COMMENT=%comment%" -T "BAND=%albuminterpret%" -T "COMPOSER=%composer%" %haslyrics%--tag-from-file=LYRICS="%lyricsfile%"%haslyrics% -T "DISCNUMBER=%cdnumber%" -T "TOTALDISCS=%totalcds%" -T "TOTALTRACKS=%numtracks%" %hascover%--picture="%coverfile%"%hascover% %source% -o %dest%
TOC of the extracted CD
Track | Start | Length | Start sector | End sector
---------------------------------------------------------
1 | 0:00.00 | 21:59.31 | 0 | 98955
2 | 21:59.31 | 4:13.22 | 98956 | 117952
3 | 26:12.53 | 10:59.10 | 117953 | 167387
4 | 37:11.63 | 10:59.67 | 167388 | 216879
5 | 48:11.55 | 7:59.66 | 216880 | 252870
Track 1
Filename D:\zzz\01 - Jungle Chase.wav
Pre-gap length 0:00:02.00
Peak level 99.8 %
Extraction speed 5.7 X
Track quality 100.0 %
Test CRC AC107B5E
Copy CRC AC107B5E
Track not present in AccurateRip database
Copy OK
Track 2
Filename D:\zzz\02 - South American Indian.wav
Peak level 84.0 %
Extraction speed 5.6 X
Track quality 99.9 %
Test CRC 86308FEB
Copy CRC 86308FEB
Track not present in AccurateRip database
Copy OK
Track 3
Filename D:\zzz\03 - Sad Senorita.wav
Peak level 98.0 %
Extraction speed 7.0 X
Track quality 99.9 %
Test CRC F2CFAC25
Copy CRC F2CFAC25
Track not present in AccurateRip database
Copy OK
Track 4
Filename D:\zzz\04 - Che Guevera.wav
Peak level 98.6 %
Extraction speed 8.1 X
Track quality 100.0 %
Test CRC 2F9E96C1
Copy CRC 2F9E96C1
Track not present in AccurateRip database
Copy OK
Track 5
Filename D:\zzz\05 - Basking In The Sun.wav
Peak level 97.0 %
Extraction speed 8.5 X
Track quality 100.0 %
Test CRC 99419918
Copy CRC 99419918
Track not present in AccurateRip database
Copy OK
None of the tracks are present in the AccurateRip database
No errors occurred
End of status report
==== Log checksum 556F1CE7AFFE7374F72ED27EE108520F575B4BC4ECEA0C4F1D5CEC006C56CCBF ====
 
Содержание индексной карты (.CUE)
REM GENRE "Free Jazz"
REM DATE 2009
REM DISCID 3A0D2B05
REM COMMENT "ExactAudioCopy v1.0b3"
PERFORMER "Bob Downes Open Music"
TITLE "Crossing Borders"
FILE "01 - Jungle Chase.wav" WAVE
TRACK 01 AUDIO
TITLE "Jungle Chase"
PERFORMER "Bob Downes Open Music"
INDEX 01 00:00:00
FILE "02 - South American Indian.wav" WAVE
TRACK 02 AUDIO
TITLE "South American Indian"
PERFORMER "Bob Downes Open Music"
INDEX 01 00:00:00
FILE "03 - Sad Senorita.wav" WAVE
TRACK 03 AUDIO
TITLE "Sad Senorita"
PERFORMER "Bob Downes Open Music"
INDEX 01 00:00:00
FILE "04 - Che Guevera.wav" WAVE
TRACK 04 AUDIO
TITLE "Che Guevera"
PERFORMER "Bob Downes Open Music"
INDEX 01 00:00:00
FILE "05 - Basking In The Sun.wav" WAVE
TRACK 05 AUDIO
TITLE "Basking In The Sun"
PERFORMER "Bob Downes Open Music"
INDEX 01 00:00:00
 
Лог проверки качества
d:\>d:\aucdtect -d/-m0 d:\zzz\*.wav
auCDtect: CD records authenticity detector, version 0.8.2
Copyright (c) 2004 Oleg Berngardt. All rights reserved.
Copyright (c) 2004 Alexander Djourik. All rights reserved.
------------------------------------------------------------
Processing file: [01. Jungle Chase.wav]
------------------------------------------------------------
This track looks like CDDA with probability 43%
------------------------------------------------------------
Processing file: [02. South American Indian.wav]
------------------------------------------------------------
This track looks like CDDA with probability 100%
------------------------------------------------------------
Processing file: [03. Sad Senorita.wav]
------------------------------------------------------------
This track looks like CDDA with probability 100%
------------------------------------------------------------
Processing file: [04. Che Guevera.wav]
------------------------------------------------------------
This track looks like CDDA with probability 100%
------------------------------------------------------------
Processing file: [05. Basking In The Sun.wav]
------------------------------------------------------------
This track looks like CDDA with probability 100%
------------------------------------------------------------
Final Conclusion:
------------------------------------------------------------
These tracks looks like CDDA with probability 100%
Доп. информация:
 
Album Info & AAJ Review
Recorded on open reel tape at Riverside Studios, London 1978/79
All compositions and arrangements by Bob Downes
Photos courtesy of Bob Downes collection except John Stevens (C) Jak Kilby
Remastered & glass mastered in real time
Produced in Canada by Michael King
Sound advice by Miki Dandy
Here's another of Reel's exercises in twentieth century tape archaeology. Like earlier efforts, it has the practical effect of sealing another hole in the documented fabric of British jazz and improvised music from the last four decades of that century. It's highly worthwhile too, this labor of love, as on this occasion it yields a program of music every bit as inventive as that produced by bigger stars—the term is as good as meaningless in the circumstances—of the day. Recorded at the end of the '70s, this music is both timeless and symbolic of moments in time when the players came together informally to tease the music from out of the ether.
Although primarily a flautist, it's the pieces that document Downes on alto or tenor sax that are the most compelling. His alto sound on "Sad Senorita" is significantly textural, and has an edge both grainy and acerbic. In the company of the underrated Brian Godding on guitar it does a dance at once lively yet downbeat in emulation of the title. Drummer John Stevens, in marked contrast to his work with the Spontaneous Music Ensemble, shows how propulsive he could be in a relatively more orthodox setting, while the basses of Barry Guy and Mark Meggido conspire never to get in each others' way, lending impetus to the music's open feel.
Downes plays both alto and tenor sax on the opening "Jungle Chase," in addition to flute and the Columbian pan flute he opens the piece on. His facility as a flautist is brought home. His rounded, full-bodied tone is never reduced to mere piping and the effect is that of a wholehearted improviser working the moment as though it's the most precious thing. The impression is reinforced when he switches to alto sax about nine minutes in, with Guy again on bass tracking developments.
Trombonist Paul Rutherford crops up on "Basking In The Sun," a piece which is the embodiment of propulsive atmosphere. Downes' flute is at its most lyrical and the music coalesces in a manner that soundtracks the activity of the title most effectively. Rutherford, at his most necessarily conventional, reminds us of how lovely his tone was. The relative brevity of the piece is fine in itself, an example of open music in the most rewarding sense of the term.
 
Состав
Bob Downes: alto & tenor saxes/flute & Columbian pan flute/Bahian cowbells/vocalizing (1), solo bass flute/simultaneous vocalizing (2), alto saxophone (3), flute/vocalizing (4), flute (5), liner notes
Barry Guy: bass (1,3,4)
Denis Smith: drums (1,5)
Brian Godding: electric guitar (3,4,5)
Mark Meggido: bass (3,4)
John Stevens: drums (3,4)
Paul Rutherford: trombone (5)
Paul Bridge: bass (5)
По всем вопросам пишите личное сообщение пользователю M0p94ok.
23:45
210
Нет комментариев. Ваш будет первым!