Вы используете незарегистрированную версию компонента "Вкладки"!

Поиск

(Avant-Garde) [CD] Denis Colin Trio (Didier Petit, Pablo Cueco) - Something in Common - 2002, FLAC (tracks+.cue), lossless

(Avant-Garde) [CD] Denis Colin Trio (Didier Petit, Pablo Cueco) - Something in Common - 2002, FLAC (tracks+.cue), lossless
Треклист:
Denis Colin Trio / Something in Common
Жанр: Avant-Garde
Носитель: CD
Страна-производитель диска: EU
Год издания: 2002
Издатель (лейбл): Nato
Номер по каталогу: 017 508-2
Аудиокодек: FLAC (*.flac)
Тип рипа: tracks+.cue
Битрейт аудио: lossless
Продолжительность: 57:00
Источник (релизер): я
Наличие сканов в содержимом раздачи: нет
Треклист:
1. Diallo (Wyclef Jean) 7:33
2. Jungoso (Sonny Rollins) 6:25
3. If 6 Was 9 (Jimi Hendrix) 3:45
4. Woman of the Ghetto (Marlena Shaw / Richard Lee Evans / Robert Eugene Miller) 5:55
5. Blasé (Archie Shepp) 9:09
6. Turkish Women at the Bath (Pete La Roca) 5:20
7. African Drums Suite (Beaver Harris) 8:12
8. They Won’t Go When I Go (Steve Wonder / Yvonne Wright) 6:25
9. Amen (John Coltrane) 4:16
Recorded during 2001 Fall in Minneapolis at Creation Audio (Room A).
Denis Colin – Bass Clarinet
Didier Petit – Cello
Pablo Cueco – Zarb
with Gwen Matthews, The Steeles, Wain Mc Farlane, Dirty Bandits, Mike Scott.
 
Лог создания рипа
Exact Audio Copy V1.0 beta 3 from 29. August 2011
EAC extraction logfile from 22. February 2014, 13:23
Denis Colin Trio / Something in Common
Used drive : SlimtypeeNAU508 5 Adapter: 1 ID: 0
Read mode : Secure
Utilize accurate stream : Yes
Defeat audio cache : Yes
Make use of C2 pointers : No
Read offset correction : 6
Overread into Lead-In and Lead-Out : No
Fill up missing offset samples with silence : Yes
Delete leading and trailing silent blocks : No
Null samples used in CRC calculations : Yes
Used interface : Native Win32 interface for Win NT & 2000
Gap handling : Appended to previous track
Used output format : User Defined Encoder
Selected bitrate : 768 kBit/s
Quality : High
Add ID3 tag : No
Command line compressor : C:\Program Files (x86)\Exact Audio Copy\Flac\flac.exe
Additional command line options : -8 -V -T "ARTIST=%artist%" -T "TITLE=%title%" -T "ALBUM=%albumtitle%" -T "DATE=%year%" -T "TRACKNUMBER=%tracknr%" -T "GENRE=%genre%" -T "PERFORMER=%albuminterpret%" -T "COMPOSER=%composer%" -T "ALBUMARTIST=%albumartist%" -T "DISCNUMBER=%cdnumber%" -T "TOTALDISCS=%totalcds%" -T "TOTALTRACKS=%numtracks%" -T "COMMENT=%comment%" %source% -o %dest%
TOC of the extracted CD
Track | Start | Length | Start sector | End sector
---------------------------------------------------------
1 | 0:00.00 | 7:32.60 | 0 | 33959
2 | 7:32.60 | 6:25.25 | 33960 | 62859
3 | 13:58.10 | 3:44.47 | 62860 | 79706
4 | 17:42.57 | 5:55.08 | 79707 | 106339
5 | 23:37.65 | 9:08.67 | 106340 | 147506
6 | 32:46.57 | 5:20.25 | 147507 | 171531
7 | 38:07.07 | 8:11.53 | 171532 | 208409
8 | 46:18.60 | 6:25.15 | 208410 | 237299
9 | 52:44.00 | 4:16.12 | 237300 | 256511
Track 1
Filename C:\EAC rips\01 - Diallo.wav
Pre-gap length 0:00:02.00
Peak level 98.0 %
Extraction speed 2.1 X
Track quality 99.9 %
Test CRC 275D08FF
Copy CRC 275D08FF
Accurately ripped (confidence 4) [C489651A] (AR v2)
Copy OK
Track 2
Filename C:\EAC rips\02 - Jungoso.wav
Peak level 98.0 %
Extraction speed 2.7 X
Track quality 100.0 %
Test CRC 8F737B72
Copy CRC 8F737B72
Accurately ripped (confidence 4) [C388AC74] (AR v2)
Copy OK
Track 3
Filename C:\EAC rips\03 - If 6 Was 9.wav
Peak level 100.0 %
Extraction speed 2.8 X
Track quality 100.0 %
Test CRC F6E9B373
Copy CRC F6E9B373
Accurately ripped (confidence 4) [798B1621] (AR v2)
Copy OK
Track 4
Filename C:\EAC rips\04 - Woman of the Ghetto.wav
Pre-gap length 0:00:04.65
Peak level 98.0 %
Extraction speed 3.1 X
Track quality 100.0 %
Test CRC C5A08314
Copy CRC C5A08314
Accurately ripped (confidence 4) [E8C41011] (AR v2)
Copy OK
Track 5
Filename C:\EAC rips\05 - Blasé.wav
Pre-gap length 0:00:01.11
Peak level 100.0 %
Extraction speed 3.6 X
Track quality 100.0 %
Test CRC 97000BCF
Copy CRC 97000BCF
Accurately ripped (confidence 4) [196CBC05] (AR v2)
Copy OK
Track 6
Filename C:\EAC rips\06 - Turkish Women at the Bath.wav
Pre-gap length 0:00:03.00
Peak level 100.0 %
Extraction speed 3.1 X
Track quality 99.9 %
Test CRC 27CAF573
Copy CRC 27CAF573
Accurately ripped (confidence 4) [2331A7D8] (AR v2)
Copy OK
Track 7
Filename C:\EAC rips\07 - African Drum Suite.wav
Pre-gap length 0:00:01.55
Peak level 98.0 %
Extraction speed 3.7 X
Track quality 99.9 %
Test CRC 04AC9DC8
Copy CRC 04AC9DC8
Accurately ripped (confidence 4) [1ECDBA5E] (AR v2)
Copy OK
Track 8
Filename C:\EAC rips\08 - They Won't Go When I Go.wav
Pre-gap length 0:00:02.60
Peak level 100.0 %
Extraction speed 4.2 X
Track quality 100.0 %
Test CRC A366A3D3
Copy CRC A366A3D3
Accurately ripped (confidence 4) [21ACCC6A] (AR v2)
Copy OK
Track 9
Filename C:\EAC rips\09 - Amen.wav
Peak level 100.0 %
Extraction speed 4.1 X
Track quality 100.0 %
Test CRC CE5FD4F8
Copy CRC CE5FD4F8
Accurately ripped (confidence 4) [8C9A9A86] (AR v2)
Copy OK
All tracks accurately ripped
No errors occurred
End of status report
---- CUETools DB Plugin V2.1.4
[CTDB TOCID: faUhi9j1D_VazQvi13SyqDu_RJU-] found
Submit result: faUhi9j1D_VazQvi13SyqDu_RJU- has been confirmed
Track | CTDB Status
1 | (2/2) Accurately ripped
2 | (2/2) Accurately ripped
3 | (2/2) Accurately ripped
4 | (2/2) Accurately ripped
5 | (2/2) Accurately ripped
6 | (2/2) Accurately ripped
7 | (2/2) Accurately ripped
8 | (2/2) Accurately ripped
9 | (2/2) Accurately ripped
==== Log checksum A8A3BDCB3BCD90BDE69064A4469B5B3DAF3A2F9CB238D3BBD078CD167D20012A ====
 
Содержание индексной карты (.CUE)
REM GENRE Jazz
REM DATE 2002
REM DISCID 830D5C09
REM COMMENT "ExactAudioCopy v1.0b3"
PERFORMER "Denis Colin Trio"
TITLE "Something in Common"
FILE "01 - Diallo.wav" WAVE
TRACK 01 AUDIO
TITLE "Diallo"
PERFORMER "Denis Colin Trio"
ISRC FRZ020280010
INDEX 01 00:00:00
FILE "02 - Jungoso.wav" WAVE
TRACK 02 AUDIO
TITLE "Jungoso"
PERFORMER "Denis Colin Trio"
ISRC FRZ020280020
INDEX 01 00:00:00
FILE "03 - If 6 Was 9.wav" WAVE
TRACK 03 AUDIO
TITLE "If 6 Was 9"
PERFORMER "Denis Colin Trio"
ISRC FRZ020280030
INDEX 01 00:00:00
TRACK 04 AUDIO
TITLE "Woman of the Ghetto"
PERFORMER "Denis Colin Trio"
ISRC FRZ020280040
INDEX 00 03:39:57
FILE "04 - Woman of the Ghetto.wav" WAVE
INDEX 01 00:00:00
TRACK 05 AUDIO
TITLE "Blasé"
PERFORMER "Denis Colin Trio"
ISRC FRZ020280050
INDEX 00 05:53:72
FILE "05 - Blasé.wav" WAVE
INDEX 01 00:00:00
TRACK 06 AUDIO
TITLE "Turkish Women at the Bath"
PERFORMER "Denis Colin Trio"
ISRC FRZ020280060
INDEX 00 09:05:67
FILE "06 - Turkish Women at the Bath.wav" WAVE
INDEX 01 00:00:00
TRACK 07 AUDIO
TITLE "African Drum Suite"
PERFORMER "Denis Colin Trio"
ISRC FRZ020280070
INDEX 00 05:18:45
FILE "07 - African Drum Suite.wav" WAVE
INDEX 01 00:00:00
TRACK 08 AUDIO
TITLE "They Won't Go When I Go"
PERFORMER "Denis Colin Trio"
ISRC FRZ020280080
INDEX 00 08:08:68
FILE "08 - They Won't Go When I Go.wav" WAVE
INDEX 01 00:00:00
FILE "09 - Amen.wav" WAVE
TRACK 09 AUDIO
TITLE "Amen"
PERFORMER "Denis Colin Trio"
ISRC FRZ020280090
INDEX 01 00:00:00
 
Detailed personnel
1. Diallo
Denis Colin – Bass Clarinet
Didier Petit – Cello
Pablo Cueco – Zarb
Wain Mc Farlane – Vocals
Snap G – Spoken Vocals
2. Jungoso
Denis Colin – Bass Clarinet
Didier Petit – Cello
Pablo Cueco – Zarb
Wain Mc Farlane – Vocals
Snap G – Vocals
3. If 6 Was 9
Denis Colin – Bass Clarinet
Didier Petit – Cello
Pablo Cueco – Zarb
Dirty Bandits:
Snap G – Vocals
Doe – Vocal
C Ball – The Third Man
4. Woman of the Ghetto
Denis Colin – Bass Clarinet
Didier Petit – Cello
Pablo Cueco – Zarb
The Steeles:
Jevetta Steele – Vocals
Jearlyn Steele – Vocals
JD Steele – Vocals
Fred Steele – Vocals
Billy Steele – Vocals
5. Blasé
Denis Colin – Bass Clarinet
Didier Petit – Cello
Pablo Cueco – Zarb
Gwen Matthews – Vocals
6. Turkish Women at the Bath
Denis Colin – Bass Clarinet
Didier Petit – Cello
Pablo Cueco – Zarb
7. African Drums Suite
Denis Colin – Bass Clarinet
Didier Petit – Cello
Pablo Cueco – Zarb
Gwen Matthews – Vocals
Wain Mc Farlane – Vocals
Mike Scott – Guitar
8. They Won’t Go When I Go
Denis Colin – Bass Clarinet
Didier Petit – Cello
Pablo Cueco – Zarb
The Steeles:
Fred Steele – Vocals
Billy Steele – Vocals
JD Steele – Vocals
Jevetta Steele – Vocals
Jearlyn Steele – Vocals
9. Amen
Denis Colin – Bass Clarinet
Didier Petit – Cello
Pablo Cueco – Zarb
Any questions -> support@pro-jazz.com. По всем вопросам пишите -> support@pro-jazz.com
23:47
147
Нет комментариев. Ваш будет первым!