Вы используете незарегистрированную версию компонента "Вкладки"!

Поиск

(avantgarde jazz) [CD] Toshinori Kondo - Going Places...For Keith - 2009, FLAC (tracks+.cue), lossless

(avantgarde jazz) [CD] Toshinori Kondo - Going Places...For Keith - 2009, FLAC (tracks+.cue), lossless
Треклист:
Toshinori Kondo / Going Places...For Keith
Жанр: avantgarde jazz
Носитель: CD
Страна-производитель диска: japan
Год издания: 2009
Издатель (лейбл): jasrac
Номер по каталогу: r-0890359
Страна: japan
Аудиокодек: FLAC (*.flac)
Тип рипа: tracks+.cue
Битрейт аудио: lossless
Продолжительность: 56:06
Источник (релизер): zvukovoj
Наличие сканов в содержимом раздачи: нет
Треклист:
01. A Song For The Small Planet (6'26")
(Composed by Toshinori Kondo)
02. Blow Your Mind (4'54")
(Composed by Toshinori Kondo & DJ Grazhoppa)
03. Let's Go Keith (4'59")
(Composed by Toshinori Kondo & DJ Grazhoppa)
04. Space Platform 7 (4'48")
(Composed by Toshinori Kondo & DJ Grazhoppa)
05. Close Your Eyes (2'36")
(Composed by Toshinori Kondo)
06. Under The Quiet Moonlight (4'33")
(Composed by Toshinori Kondo & Dirk Wachtelaer)
07. Touch (5'14")
(Composed by Toshinori Kondo & Dirk Wachtelaer)
08. Echo Of The Gravity (3'20")
(Composed by Toshinori Kondo & Dirk Wachtelaer)
09. Endless Space (7'10")
(Composed by Toshinori Kondo)
10. Out Of Crisis (6'15")
(Composed by Toshinori Kondo & DJ Submerged)
11. Groovy Street (4'59")
(Composed by Toshinori Kondo)
12. Wind Is... (0'46")
(Composed by Toshinori Kondo)
 
Лог создания рипа
Exact Audio Copy V1.0 beta 3 from 29. August 2011
EAC extraction logfile from 23. February 2014, 23:08
Toshinori Kondo / Going Places ... For Keith
Used drive : TSSTcorpCDDVDW SH-222BB Adapter: 0 ID: 1
Read mode : Secure
Utilize accurate stream : Yes
Defeat audio cache : Yes
Make use of C2 pointers : No
Read offset correction : 6
Overread into Lead-In and Lead-Out : No
Fill up missing offset samples with silence : Yes
Delete leading and trailing silent blocks : No
Null samples used in CRC calculations : Yes
Used interface : Native Win32 interface for Win NT & 2000
Gap handling : Appended to previous track
Used output format : User Defined Encoder
Selected bitrate : 896 kBit/s
Quality : High
Add ID3 tag : No
Command line compressor : C:\Program Files\Exact Audio Copy\FLAC\FLAC.EXE
Additional command line options : -V -8 -T "Genre=%genre%" -T "Artist=%artist%" -T "Title=%title%" -T "Album=%albumtitle%" -T "Date=%year%" -T "Tracknumber=%tracknr%" -T "Comment=%comment%" %source%
TOC of the extracted CD
Track | Start | Length | Start sector | End sector
---------------------------------------------------------
1 | 0:00.00 | 6:26.15 | 0 | 28964
2 | 6:26.15 | 4:54.57 | 28965 | 51071
3 | 11:20.72 | 4:59.01 | 51072 | 73497
4 | 16:19.73 | 4:48.60 | 73498 | 95157
5 | 21:08.58 | 2:36.22 | 95158 | 106879
6 | 23:45.05 | 4:33.45 | 106880 | 127399
7 | 28:18.50 | 5:14.20 | 127400 | 150969
8 | 33:32.70 | 3:20.62 | 150970 | 166031
9 | 36:53.57 | 7:10.64 | 166032 | 198345
10 | 44:04.46 | 6:15.39 | 198346 | 226509
11 | 50:20.10 | 4:59.12 | 226510 | 248946
12 | 55:19.22 | 0:46.35 | 248947 | 252431
Track 1
Filename K:\My eMusic\Toshinori kondo\Toshinori Kondo - Going Places...For Keith\01. A Song For The Small Planet.wav
Pre-gap length 0:00:02.00
Peak level 100.0 %
Extraction speed 5.1 X
Track quality 100.0 %
Test CRC 39A67B45
Copy CRC 39A67B45
Track not present in AccurateRip database
Copy OK
Track 2
Filename K:\My eMusic\Toshinori kondo\Toshinori Kondo - Going Places...For Keith\02. Blow Your Mind.wav
Peak level 100.0 %
Extraction speed 5.6 X
Track quality 100.0 %
Test CRC 047993E3
Copy CRC 047993E3
Track not present in AccurateRip database
Copy OK
Track 3
Filename K:\My eMusic\Toshinori kondo\Toshinori Kondo - Going Places...For Keith\03. Let's Go Keith.wav
Peak level 100.0 %
Extraction speed 6.1 X
Track quality 100.0 %
Test CRC 1DC719F1
Copy CRC 1DC719F1
Track not present in AccurateRip database
Copy OK
Track 4
Filename K:\My eMusic\Toshinori kondo\Toshinori Kondo - Going Places...For Keith\04. Space Platform 7.wav
Peak level 100.0 %
Extraction speed 5.9 X
Track quality 99.9 %
Test CRC E4F8BA53
Copy CRC E4F8BA53
Track not present in AccurateRip database
Copy OK
Track 5
Filename K:\My eMusic\Toshinori kondo\Toshinori Kondo - Going Places...For Keith\05. Close Your Eyes.wav
Peak level 100.0 %
Extraction speed 6.2 X
Track quality 100.0 %
Test CRC A819287F
Copy CRC A819287F
Track not present in AccurateRip database
Copy OK
Track 6
Filename K:\My eMusic\Toshinori kondo\Toshinori Kondo - Going Places...For Keith\06. Under The Quiet Moonlight.wav
Peak level 100.0 %
Extraction speed 7.1 X
Track quality 100.0 %
Test CRC 3D00EC6E
Copy CRC 3D00EC6E
Track not present in AccurateRip database
Copy OK
Track 7
Filename K:\My eMusic\Toshinori kondo\Toshinori Kondo - Going Places...For Keith\07. Touch.wav
Peak level 100.0 %
Extraction speed 7.6 X
Track quality 100.0 %
Test CRC F99B071B
Copy CRC F99B071B
Track not present in AccurateRip database
Copy OK
Track 8
Filename K:\My eMusic\Toshinori kondo\Toshinori Kondo - Going Places...For Keith\08. Echo Of The Gravity.wav
Peak level 100.0 %
Extraction speed 6.3 X
Track quality 99.9 %
Test CRC B6E47024
Copy CRC B6E47024
Track not present in AccurateRip database
Copy OK
Track 9
Filename K:\My eMusic\Toshinori kondo\Toshinori Kondo - Going Places...For Keith\09. Endless Space.wav
Peak level 100.0 %
Extraction speed 8.5 X
Track quality 100.0 %
Test CRC 71FD993B
Copy CRC 71FD993B
Track not present in AccurateRip database
Copy OK
Track 10
Filename K:\My eMusic\Toshinori kondo\Toshinori Kondo - Going Places...For Keith\10. Out Of Crisis.wav
Peak level 100.0 %
Extraction speed 8.8 X
Track quality 100.0 %
Test CRC A3C08200
Copy CRC A3C08200
Track not present in AccurateRip database
Copy OK
Track 11
Filename K:\My eMusic\Toshinori kondo\Toshinori Kondo - Going Places...For Keith\11. Groovy Street.wav
Peak level 100.0 %
Extraction speed 8.1 X
Track quality 99.9 %
Test CRC 703CD711
Copy CRC 703CD711
Track not present in AccurateRip database
Copy OK
Track 12
Filename K:\My eMusic\Toshinori kondo\Toshinori Kondo - Going Places...For Keith\12. Wind Is....wav
Peak level 97.5 %
Extraction speed 3.8 X
Track quality 99.7 %
Test CRC 68F95895
Copy CRC 68F95895
Track not present in AccurateRip database
Copy OK
None of the tracks are present in the AccurateRip database
No errors occurred
End of status report
 
Содержание индексной карты (.CUE)
REM DATE 2009
REM DISCID 8A0D250C
REM COMMENT "ExactAudioCopy v1.0b3"
PERFORMER "Toshinori Kondo"
TITLE "Going Places ... For Keith"
FILE "01. A Song For The Small Planet.wav" WAVE
TRACK 01 AUDIO
TITLE "A Song For The Small Planet"
PERFORMER "Toshinori Kondo"
INDEX 01 00:00:00
FILE "02. Blow Your Mind.wav" WAVE
TRACK 02 AUDIO
TITLE "Blow Your Mind"
PERFORMER "Toshinori Kondo"
INDEX 01 00:00:00
FILE "03. Let's Go Keith.wav" WAVE
TRACK 03 AUDIO
TITLE "Let's Go Keith"
PERFORMER "Toshinori Kondo"
INDEX 01 00:00:00
FILE "04. Space Platform 7.wav" WAVE
TRACK 04 AUDIO
TITLE "Space Platform 7"
PERFORMER "Toshinori Kondo"
INDEX 01 00:00:00
FILE "05. Close Your Eyes.wav" WAVE
TRACK 05 AUDIO
TITLE "Close Your Eyes"
PERFORMER "Toshinori Kondo"
INDEX 01 00:00:00
FILE "06. Under The Quiet Moonlight.wav" WAVE
TRACK 06 AUDIO
TITLE "Under The Quiet Moonlight"
PERFORMER "Toshinori Kondo"
INDEX 01 00:00:00
FILE "07. Touch.wav" WAVE
TRACK 07 AUDIO
TITLE "Touch"
PERFORMER "Toshinori Kondo"
INDEX 01 00:00:00
FILE "08. Echo Of The Gravity.wav" WAVE
TRACK 08 AUDIO
TITLE "Echo Of The Gravity"
PERFORMER "Toshinori Kondo"
INDEX 01 00:00:00
FILE "09. Endless Space.wav" WAVE
TRACK 09 AUDIO
TITLE "Endless Space"
PERFORMER "Toshinori Kondo"
INDEX 01 00:00:00
FILE "10. Out Of Crisis.wav" WAVE
TRACK 10 AUDIO
TITLE "Out Of Crisis"
PERFORMER "Toshinori Kondo"
INDEX 01 00:00:00
FILE "11. Groovy Street.wav" WAVE
TRACK 11 AUDIO
TITLE "Groovy Street"
PERFORMER "Toshinori Kondo"
INDEX 01 00:00:00
FILE "12. Wind Is....wav" WAVE
TRACK 12 AUDIO
TITLE "Wind Is..."
PERFORMER "Toshinori Kondo"
INDEX 01 00:00:00
 
Состав
Toshinori Kondo - electric trumpet and programming
DJ Grazhoppa - Turntable and programming
Dirk Watehelear - Drums and programming
DJ Submerged - programming
Eifi - Electric guitar
Any questions -> support@pro-jazz.com. По всем вопросам пишите -> support@pro-jazz.com
23:47
136
Нет комментариев. Ваш будет первым!