Вы используете незарегистрированную версию компонента "Вкладки"!

Поиск

(Free Jazz, Black Saint) The Muhal Richard Abrams Orchestra - Blu Blu Blu - 1991, FLAC (tracks+.cue), lossless

(Free Jazz, Black Saint) The Muhal Richard Abrams Orchestra - Blu Blu Blu - 1991, FLAC (tracks+.cue), lossless
Треклист:
The Muhal Richard Abrams Orchestra / Blu Blu Blu
Жанр: Free Jazz, Black Saint
Страна-производитель диска: Italy
Год издания: 1991
Издатель (лейбл): Black Saint
Номер по каталогу: 120117-2
Аудиокодек: FLAC (*.flac)
Тип рипа: tracks+.cue
Битрейт аудио: lossless
Продолжительность: 1:17:07
Источник (релизер): Max Monteiro
Наличие сканов в содержимом раздачи: нет
Треклист:
1. Plus Equal Minus Balance 11:14
2. Cycles Five 7:55
3. Bloodline 15:24
4. Septone 6:32
5. Blu Blu Blu (Dedicated to McKinley Morganfield / Muddy Waters) 9:18
6. Petsrof 6:29
7. One for the Whistler 6:51
8. Stretch Time 13:24
All compositions by Muhal Richard Abrams.
Recorded November 9 and 10, 1990 at RPM Sound Studios, New York.
Joel Brandon – Whistler
Jack Walrath – Trumpet
Alfred Patterson – Trombone
Mark Taylor – French Horn
Joe Daley – Tuba
John Purcell – Alto Saxophone, Flute, Clarinet
Robert De Bellis – Alto Saxophone, Clarinet, Bass Clarinet
Eugene Ghee – Tenor Saxophone, Clarinet, Bass Clarinet
Patience Higgins – Baritone Saxophone, Flute, Clarinet
David Fiuczynski – Guitar
Brad Jones – Bass
Lindsey Horner – Bass (2, 4, 6)
Warren Smith – Vibes, Timpani
Thurman Barker – Drums
Muhal Richard Abrams – Piano, Synthesizer, Bells, Conductor
 
Лог создания рипа
Exact Audio Copy V1.0 beta 3 from 29. August 2011
EAC extraction logfile from 16. July 2013, 19:39
The Muhal Richard Abrams Orchestra / Blu Blu Blu
Used drive : SlimtypeeNAU508 5 Adapter: 1 ID: 0
Read mode : Secure
Utilize accurate stream : Yes
Defeat audio cache : Yes
Make use of C2 pointers : No
Read offset correction : 6
Overread into Lead-In and Lead-Out : No
Fill up missing offset samples with silence : Yes
Delete leading and trailing silent blocks : No
Null samples used in CRC calculations : Yes
Used interface : Native Win32 interface for Win NT & 2000
Gap handling : Appended to previous track
Used output format : User Defined Encoder
Selected bitrate : 768 kBit/s
Quality : High
Add ID3 tag : No
Command line compressor : C:\Program Files (x86)\Exact Audio Copy\Flac\flac.exe
Additional command line options : -8 -V -T "ARTIST=%artist%" -T "TITLE=%title%" -T "ALBUM=%albumtitle%" -T "DATE=%year%" -T "TRACKNUMBER=%tracknr%" -T "GENRE=%genre%" -T "PERFORMER=%albuminterpret%" -T "COMPOSER=%composer%" %haslyrics%--tag-from-file=LYRICS="%lyricsfile%"%haslyrics% -T "ALBUMARTIST=%albumartist%" -T "DISCNUMBER=%cdnumber%" -T "TOTALDISCS=%totalcds%" -T "TOTALTRACKS=%numtracks%" -T "COMMENT=%comment%" %source% -o %dest%
TOC of the extracted CD
Track | Start | Length | Start sector | End sector
---------------------------------------------------------
1 | 0:00.33 | 11:13.47 | 33 | 50554
2 | 11:14.05 | 7:55.28 | 50555 | 86207
3 | 19:09.33 | 15:24.00 | 86208 | 155507
4 | 34:33.33 | 6:32.00 | 155508 | 184907
5 | 41:05.33 | 9:17.42 | 184908 | 226724
6 | 50:23.00 | 6:29.33 | 226725 | 255932
7 | 56:52.33 | 6:51.00 | 255933 | 286757
8 | 63:43.33 | 13:24.00 | 286758 | 347057
Track 1
Filename C:\EAC rips\01 - Plus Equal Minus Balance.wav
Pre-gap length 0:00:02.33
Peak level 94.6 %
Extraction speed 1.3 X
Track quality 99.9 %
Test CRC BAAA2AF4
Copy CRC BAAA2AF4
Track not present in AccurateRip database
Copy OK
Track 2
Filename C:\EAC rips\02 - Cycles Five.wav
Peak level 83.2 %
Extraction speed 1.6 X
Track quality 100.0 %
Test CRC 3530E78B
Copy CRC 3530E78B
Accurately ripped (confidence 2) [B12CC8D1] (AR v1)
Copy OK
Track 3
Filename C:\EAC rips\03 - Bloodline.wav
Peak level 94.7 %
Extraction speed 2.0 X
Track quality 100.0 %
Test CRC 42C08377
Copy CRC 42C08377
Accurately ripped (confidence 2) [6B203D7A] (AR v1)
Copy OK
Track 4
Filename C:\EAC rips\04 - Septone.wav
Peak level 88.8 %
Extraction speed 2.1 X
Track quality 100.0 %
Test CRC E0B98576
Copy CRC E0B98576
Accurately ripped (confidence 2) [EC4A11CB] (AR v1)
Copy OK
Track 5
Filename C:\EAC rips\05 - Blu Blu Blu.wav
Peak level 96.6 %
Extraction speed 2.3 X
Track quality 100.0 %
Test CRC 47009D08
Copy CRC 47009D08
Accurately ripped (confidence 2) [B6DB5C47] (AR v1)
Copy OK
Track 6
Filename C:\EAC rips\06 - Petsrof.wav
Peak level 86.3 %
Extraction speed 2.1 X
Track quality 99.9 %
Test CRC 4A07E7F6
Copy CRC 4A07E7F6
Accurately ripped (confidence 2) [6B75BF62] (AR v1)
Copy OK
Track 7
Filename C:\EAC rips\07 - One for the Whistler.wav
Peak level 95.2 %
Extraction speed 2.2 X
Track quality 99.9 %
Test CRC FC516251
Copy CRC FC516251
Accurately ripped (confidence 2) [6A44DDBC] (AR v1)
Copy OK
Track 8
Filename C:\EAC rips\08 - Stretch Time.wav
Peak level 94.2 %
Extraction speed 2.7 X
Track quality 100.0 %
Test CRC EFF01829
Copy CRC EFF01829
Track not present in AccurateRip database
Copy OK
6 track(s) accurately ripped
2 track(s) not present in the AccurateRip database
Some tracks could not be verified as accurate
No errors occurred
End of status report
---- CUETools DB Plugin V2.1.4
[CTDB TOCID: Vq8WCBFQ3b95I5LyQuS0TAQ2v3U-] disk not present in database
Submit result: Vq8WCBFQ3b95I5LyQuS0TAQ2v3U- has been uploaded
==== Log checksum 65F79D0CACF6BCD95F4A26A4462EE69838B5A20FDC104B168EF73D17F419F006 ====
 
Содержание индексной карты (.CUE)
REM GENRE Jazz
REM DATE 1991
REM DISCID 66121308
REM COMMENT "ExactAudioCopy v1.0b3"
PERFORMER "The Muhal Richard Abrams Orchestra"
TITLE "Blu Blu Blu"
FILE "01 - Plus Equal Minus Balance.wav" WAVE
TRACK 01 AUDIO
TITLE "Plus Equal Minus Balance"
PERFORMER "The Muhal Richard Abrams Orchestra"
PREGAP 00:00:33
INDEX 01 00:00:00
FILE "02 - Cycles Five.wav" WAVE
TRACK 02 AUDIO
TITLE "Cycles Five"
PERFORMER "The Muhal Richard Abrams Orchestra"
INDEX 01 00:00:00
FILE "03 - Bloodline.wav" WAVE
TRACK 03 AUDIO
TITLE "Bloodline"
PERFORMER "The Muhal Richard Abrams Orchestra"
INDEX 01 00:00:00
FILE "04 - Septone.wav" WAVE
TRACK 04 AUDIO
TITLE "Septone"
PERFORMER "The Muhal Richard Abrams Orchestra"
INDEX 01 00:00:00
FILE "05 - Blu Blu Blu.wav" WAVE
TRACK 05 AUDIO
TITLE "Blu Blu Blu"
PERFORMER "The Muhal Richard Abrams Orchestra"
INDEX 01 00:00:00
FILE "06 - Petsrof.wav" WAVE
TRACK 06 AUDIO
TITLE "Petsrof"
PERFORMER "The Muhal Richard Abrams Orchestra"
INDEX 01 00:00:00
FILE "07 - One for the Whistler.wav" WAVE
TRACK 07 AUDIO
TITLE "One for the Whistler"
PERFORMER "The Muhal Richard Abrams Orchestra"
INDEX 01 00:00:00
FILE "08 - Stretch Time.wav" WAVE
TRACK 08 AUDIO
TITLE "Stretch Time"
PERFORMER "The Muhal Richard Abrams Orchestra"
INDEX 01 00:00:00
По всем вопросам пишите личное сообщение пользователю M0p94ok.
16:16
429
Нет комментариев. Ваш будет первым!