Вы используете незарегистрированную версию компонента "Вкладки"!

Поиск

(Avant-Garde, Vocal) Erika Stucky - Princess - 2005, FLAC (tracks+.cue), lossless

(Avant-Garde, Vocal) Erika Stucky - Princess - 2005, FLAC (tracks+.cue), lossless
Треклист:
Erika Stucky / Princess
Жанр: Avant-Garde, Vocal
Страна-производитель диска: Germany
Год издания: 2005
Издатель (лейбл): Traumton Records
Номер по каталогу: 4481
Аудиокодек: FLAC (*.flac)
Тип рипа: tracks+.cue
Битрейт аудио: lossless
Продолжительность: 55:14
Источник (релизер): Max Monteiro
Наличие сканов в содержимом раздачи: нет
Треклист:
01. Fearless (Stucky / Stucky) 4:32
02. Sometimes It Snows in April (Prince, Lisa Coleman, Wendy Melvoin; arr. Knut Jensen) 6:01
03. Untouchable (Stucky / Stucky) 4:06
04. You Know You’re Right (Kurt Cobain) 2:44
05. Bad (Michael Jackson) 3:23
06. Die Like a Hero (Stucky / Stucky) 5:04
07. It’s the Princess That Is Wrong (Stucky / Stucky) 3:48
08. Waitress (Stucky / Stucky) 5:17
09. Domina (Stucky / Lucas Niggli) 4:59
10. Killer Queen (Freddy Mercury; arr. Knut Jensen) 3:34
11. Jailhouse Rock (Jerry Leiber / Mike Stollery) 2:21
12. El sol que tu eres (Daniel Valdez) 4:20
13. Just Don’t (Stucky) 2:04
14. Queen Mom (Stucky / Stucky) 3:01
Recorded at Benkö-Tonstudio, Wien. Additional recordings at Inhouse Studios, Basel 2004/2005.
Erika Stucky – Vocals, Accordion, Electronicas
Bertl Mütter – Trombone, Euphonium
Jon Sass – Tuba
Knut Jensen – Electronicas
Mnozil Brass (Thomas Gansch, Robert Rother, Roman Rindberger, Leonhard Paul, Gerhard Füssl, Ed Partyka, Wilfried Brandstötter) – Brass Septett, Choirs
Thomas Gansch – Trumpet
Franz Treichler – Vocals, Guitar, Sounds
Lucas Niggli – Drums
 
Лог создания рипа
Exact Audio Copy V1.0 beta 3 from 29. August 2011
EAC extraction logfile from 17. July 2013, 12:55
Erika Stucky / Princess
Used drive : SlimtypeeNAU508 5 Adapter: 1 ID: 0
Read mode : Secure
Utilize accurate stream : Yes
Defeat audio cache : Yes
Make use of C2 pointers : No
Read offset correction : 6
Overread into Lead-In and Lead-Out : No
Fill up missing offset samples with silence : Yes
Delete leading and trailing silent blocks : No
Null samples used in CRC calculations : Yes
Used interface : Native Win32 interface for Win NT & 2000
Gap handling : Appended to previous track
Used output format : User Defined Encoder
Selected bitrate : 768 kBit/s
Quality : High
Add ID3 tag : No
Command line compressor : C:\Program Files (x86)\Exact Audio Copy\Flac\flac.exe
Additional command line options : -8 -V -T "ARTIST=%artist%" -T "TITLE=%title%" -T "ALBUM=%albumtitle%" -T "DATE=%year%" -T "TRACKNUMBER=%tracknr%" -T "GENRE=%genre%" -T "PERFORMER=%albuminterpret%" -T "COMPOSER=%composer%" %haslyrics%--tag-from-file=LYRICS="%lyricsfile%"%haslyrics% -T "ALBUMARTIST=%albumartist%" -T "DISCNUMBER=%cdnumber%" -T "TOTALDISCS=%totalcds%" -T "TOTALTRACKS=%numtracks%" -T "COMMENT=%comment%" %source% -o %dest%
TOC of the extracted CD
Track | Start | Length | Start sector | End sector
---------------------------------------------------------
1 | 0:00.00 | 4:32.33 | 0 | 20432
2 | 4:32.33 | 6:01.07 | 20433 | 47514
3 | 10:33.40 | 4:05.63 | 47515 | 65952
4 | 14:39.28 | 2:44.21 | 65953 | 78273
5 | 17:23.49 | 3:22.51 | 78274 | 93474
6 | 20:46.25 | 5:03.41 | 93475 | 116240
7 | 25:49.66 | 3:47.59 | 116241 | 133324
8 | 29:37.50 | 5:17.02 | 133325 | 157101
9 | 34:54.52 | 4:59.00 | 157102 | 179526
10 | 39:53.52 | 3:34.12 | 179527 | 195588
11 | 43:27.64 | 2:21.16 | 195589 | 206179
12 | 45:49.05 | 4:20.19 | 206180 | 225698
13 | 50:09.24 | 2:03.46 | 225699 | 234969
14 | 52:12.70 | 3:00.73 | 234970 | 248542
Track 1
Filename C:\EAC rips\01 - Fearless.wav
Pre-gap length 0:00:02.00
Peak level 99.8 %
Extraction speed 2.2 X
Track quality 100.0 %
Test CRC 3FA69DCB
Copy CRC 3FA69DCB
Accurately ripped (confidence 2) [8C7FA1CB] (AR v2)
Copy OK
Track 2
Filename C:\EAC rips\02 - Sometimes It Snows in April.wav
Pre-gap length 0:00:02.56
Peak level 99.8 %
Extraction speed 2.6 X
Track quality 100.0 %
Test CRC 7E1FE70A
Copy CRC 7E1FE70A
Accurately ripped (confidence 2) [497EC33D] (AR v2)
Copy OK
Track 3
Filename C:\EAC rips\03 - Untouchable.wav
Peak level 98.4 %
Extraction speed 2.8 X
Track quality 100.0 %
Test CRC B8AF7DDE
Copy CRC B8AF7DDE
Accurately ripped (confidence 2) [AD2EF482] (AR v2)
Copy OK
Track 4
Filename C:\EAC rips\04 - You Know You're Right.wav
Peak level 99.8 %
Extraction speed 2.8 X
Track quality 100.0 %
Test CRC 668CBB06
Copy CRC 668CBB06
Accurately ripped (confidence 2) [8FD367DC] (AR v2)
Copy OK
Track 5
Filename C:\EAC rips\05 - Bad.wav
Pre-gap length 0:00:04.28
Peak level 99.8 %
Extraction speed 3.0 X
Track quality 100.0 %
Test CRC DA1CDA6C
Copy CRC DA1CDA6C
Accurately ripped (confidence 2) [932A6A25] (AR v2)
Copy OK
Track 6
Filename C:\EAC rips\06 - Die Like a Hero.wav
Pre-gap length 0:00:01.49
Peak level 99.8 %
Extraction speed 3.4 X
Track quality 100.0 %
Test CRC B6E70FE6
Copy CRC B6E70FE6
Accurately ripped (confidence 2) [FE29A050] (AR v2)
Copy OK
Track 7
Filename C:\EAC rips\07 - It's the Princess That Is Wrong.wav
Peak level 99.8 %
Extraction speed 3.4 X
Track quality 100.0 %
Test CRC DAE98AB4
Copy CRC DAE98AB4
Accurately ripped (confidence 2) [8CFA5AD9] (AR v2)
Copy OK
Track 8
Filename C:\EAC rips\08 - Waitress.wav
Pre-gap length 0:00:04.19
Peak level 99.8 %
Extraction speed 3.2 X
Track quality 99.9 %
Test CRC C86BC4C2
Copy CRC C86BC4C2
Accurately ripped (confidence 2) [8177439A] (AR v2)
Copy OK
Track 9
Filename C:\EAC rips\09 - Domina.wav
Pre-gap length 0:00:04.33
Peak level 99.8 %
Extraction speed 3.9 X
Track quality 100.0 %
Test CRC 6DE5C46C
Copy CRC 6DE5C46C
Accurately ripped (confidence 2) [C1A2E7B7] (AR v2)
Copy OK
Track 10
Filename C:\EAC rips\10 - Killer Queen.wav
Pre-gap length 0:00:02.74
Peak level 99.3 %
Extraction speed 3.6 X
Track quality 100.0 %
Test CRC 6FFC35C2
Copy CRC 6FFC35C2
Accurately ripped (confidence 2) [0557F57B] (AR v2)
Copy OK
Track 11
Filename C:\EAC rips\11 - Jailhouse Rock.wav
Pre-gap length 0:00:03.13
Peak level 99.8 %
Extraction speed 3.7 X
Track quality 100.0 %
Test CRC 7C8DF29E
Copy CRC 7C8DF29E
Accurately ripped (confidence 2) [BB234CEC] (AR v2)
Copy OK
Track 12
Filename C:\EAC rips\12 - El sol que tu eres.wav
Pre-gap length 0:00:04.02
Peak level 95.5 %
Extraction speed 3.4 X
Track quality 99.9 %
Test CRC EB8C2C36
Copy CRC EB8C2C36
Accurately ripped (confidence 2) [99CCE226] (AR v2)
Copy OK
Track 13
Filename C:\EAC rips\13 - Just Don't.wav
Peak level 99.8 %
Extraction speed 3.5 X
Track quality 100.0 %
Test CRC 2AEC9623
Copy CRC 2AEC9623
Accurately ripped (confidence 2) [2FE2A0D3] (AR v2)
Copy OK
Track 14
Filename C:\EAC rips\14 - Queen Mom.wav
Pre-gap length 0:00:02.17
Peak level 92.0 %
Extraction speed 4.1 X
Track quality 100.0 %
Test CRC 51A50481
Copy CRC 51A50481
Accurately ripped (confidence 2) [905A2A32] (AR v2)
Copy OK
All tracks accurately ripped
No errors occurred
End of status report
---- CUETools DB Plugin V2.1.4
[CTDB TOCID: LmY.cP1GHxU4bG.ql9OA3nSDM9k-] disk not present in database
Submit result: LmY.cP1GHxU4bG.ql9OA3nSDM9k- has been uploaded
==== Log checksum 0CB1821BF21807F539CC90194A575D3C2796D44EC863A69EACF9C6C0E824DCAE ====
 
Содержание индексной карты (.CUE)
REM GENRE Avant-Garde
REM DATE 2005
REM DISCID BF0CF10E
REM COMMENT "ExactAudioCopy v1.0b3"
CATALOG 0705304575628
PERFORMER "Erika Stucky"
TITLE "Princess"
FILE "01 - Fearless.wav" WAVE
TRACK 01 AUDIO
TITLE "Fearless"
PERFORMER "Erika Stucky"
ISRC DEE130506601
INDEX 01 00:00:00
TRACK 02 AUDIO
TITLE "Sometimes It Snows in April"
PERFORMER "Erika Stucky"
ISRC DEE130506602
INDEX 00 04:29:52
FILE "02 - Sometimes It Snows in April.wav" WAVE
INDEX 01 00:00:00
FILE "03 - Untouchable.wav" WAVE
TRACK 03 AUDIO
TITLE "Untouchable"
PERFORMER "Erika Stucky"
ISRC DEE130506603
INDEX 01 00:00:00
FILE "04 - You Know You're Right.wav" WAVE
TRACK 04 AUDIO
TITLE "You Know You're Right"
PERFORMER "Erika Stucky"
ISRC DEE130506604
INDEX 01 00:00:00
TRACK 05 AUDIO
TITLE "Bad"
PERFORMER "Erika Stucky"
ISRC DEE130506605
INDEX 00 02:39:68
FILE "05 - Bad.wav" WAVE
INDEX 01 00:00:00
TRACK 06 AUDIO
TITLE "Die Like a Hero"
PERFORMER "Erika Stucky"
ISRC DEE130506606
INDEX 00 03:21:02
FILE "06 - Die Like a Hero.wav" WAVE
INDEX 01 00:00:00
FILE "07 - It's the Princess That Is Wrong.wav" WAVE
TRACK 07 AUDIO
TITLE "It's the Princess That Is Wrong"
PERFORMER "Erika Stucky"
ISRC DEE130506607
INDEX 01 00:00:00
TRACK 08 AUDIO
TITLE "Waitress"
PERFORMER "Erika Stucky"
ISRC DEE130506608
INDEX 00 03:43:40
FILE "08 - Waitress.wav" WAVE
INDEX 01 00:00:00
TRACK 09 AUDIO
TITLE "Domina"
PERFORMER "Erika Stucky"
ISRC DEE130506609
INDEX 00 05:12:44
FILE "09 - Domina.wav" WAVE
INDEX 01 00:00:00
TRACK 10 AUDIO
TITLE "Killer Queen"
PERFORMER "Erika Stucky"
ISRC DEE130506610
INDEX 00 04:56:01
FILE "10 - Killer Queen.wav" WAVE
INDEX 01 00:00:00
TRACK 11 AUDIO
TITLE "Jailhouse Rock"
PERFORMER "Erika Stucky"
ISRC DEE130506611
INDEX 00 03:30:74
FILE "11 - Jailhouse Rock.wav" WAVE
INDEX 01 00:00:00
TRACK 12 AUDIO
TITLE "El sol que tu eres"
PERFORMER "Erika Stucky"
ISRC DEE130506612
INDEX 00 02:17:14
FILE "12 - El sol que tu eres.wav" WAVE
INDEX 01 00:00:00
FILE "13 - Just Don't.wav" WAVE
TRACK 13 AUDIO
TITLE "Just Don't"
PERFORMER "Erika Stucky"
ISRC DEE130506613
INDEX 01 00:00:00
TRACK 14 AUDIO
TITLE "Queen Mom"
PERFORMER "Erika Stucky"
ISRC DEE130506614
INDEX 00 02:01:29
FILE "14 - Queen Mom.wav" WAVE
INDEX 01 00:00:00
 
Состав
01. Fearless
Bertl Mütter – Trombone
Jon Sass – Tuba
02. Sometimes It Snows in April
Bertl Mütter – Trombone
Jon Sass – Tuba
03. Untouchable
Bertl Mütter – Trombone
Jon Sass – Tuba
04. You Know You’re Right
Bertl Mütter – Trombone
Jon Sass – Tuba
Mnozil Brass – Choirs
05. Bad
Bertl Mütter – Trombone
Jon Sass - Tuba
06. Die Like a Hero
Erika Stucky – Accordion
Thomas Gansch – Trumpet
07. It’s the Princess That Is Wrong
Bertl Mütter – Trombone, Euphonium
Jon Sass – Tuba
08. Waitress
Bertl Mütter – Euphonium
Jon Sass – Tuba
Mnozil Brass – Choral
09. Domina
Lucas Niggli – Drums
Bertl Mütter – Trombone
Jon Sass – Tuba
Mnozil Brass – Strip
10. Killer Queen
Bertl Mütter – Trombone
Jon Sass – Tuba
11. Jailhouse Rock
Bertl Mütter – Trombone
Jon Sass – Tuba
12. El sol que tu eres
Franz Treichler – Vocals, Guitar, Sounds
13. Just Don’t
Bertl Mütter – Trombone
Jon Sass – Tuba
Knut Jensen – Sugar-Band
14. Queen Mom
Bertl Mütter – Trombone
Jon Sass – Tuba
Mnozil Brass – Choir
По всем вопросам пишите личное сообщение пользователю M0p94ok.
16:17
223
Нет комментариев. Ваш будет первым!