Вы используете незарегистрированную версию компонента "Вкладки"!

Поиск

(Free Improvisation) Steve Lacy & Steve Potts - Flim-Flam - 1991, FLAC (tracks+.cue), lossless

(Free Improvisation) Steve Lacy & Steve Potts - Flim-Flam - 1991, FLAC (tracks+.cue), lossless
Треклист:
Steve Lacy & Steve Potts - Flim-Flam
Жанр: Free Improvisation
Страна-производитель диска: Switzerland
Год издания: 1991
Издатель (лейбл): Hat Hut Records
Номер по каталогу: hat ART CD 6087
Аудиокодек: FLAC (*.flac)
Тип рипа: tracks+.cue
Битрейт аудио: lossless
Продолжительность: 67 min.
Источник (релизер): собственный рип с оригинального диска.
Наличие сканов в содержимом раздачи: да
Треклист:
01. The Crust 6:18
02. Flim-Flam 11:04
03. 3 Points 21:04
04. The Whammies! 8:03
05. Rimace Poco 8:39
06. The Gleam 10:51
 
Лог создания рипа
Exact Audio Copy V1.0 beta 3 from 29. August 2011
EAC extraction logfile from 28. March 2013, 21:48
Steve Lacy & Steve Potts / Flim-Flam
Used drive : TSSTcorpCDDVDW SH-S222A Adapter: 1 ID: 0
Read mode : Secure
Utilize accurate stream : Yes
Defeat audio cache : Yes
Make use of C2 pointers : No
Read offset correction : 6
Overread into Lead-In and Lead-Out : No
Fill up missing offset samples with silence : Yes
Delete leading and trailing silent blocks : No
Null samples used in CRC calculations : Yes
Used interface : Native Win32 interface for Win NT & 2000
Gap handling : Appended to previous track
Used output format : User Defined Encoder
Selected bitrate : 1024 kBit/s
Quality : High
Add ID3 tag : No
Command line compressor : C:\Tool\CD\EAC10\FLAC\FLAC.EXE
Additional command line options : -8 -V -T "ARTIST=%artist%" -T "TITLE=%title%" -T "ALBUM=%albumtitle%" -T "DATE=%year%" -T "TRACKNUMBER=%tracknr%" -T "GENRE=%genre%" -T "PERFORMER=%albuminterpret%" -T "COMPOSER=%composer%" %haslyrics%--tag-from-file=LYRICS="%lyricsfile%"%haslyrics% -T "ALBUMARTIST=%albumartist%" -T "ALBUM ARTIST=%albumartist%" -T "DISCNUMBER=%cdnumber%" -T "TOTALDISCS=%totalcds%" -T "TOTALTRACKS=%numtracks%" -T "COMMENT=EAC V1.0 beta 3, Secure Mode, Test & Copy, AccurateRip, FLAC -8" %source% -o %dest%
TOC of the extracted CD
Track | Start | Length | Start sector | End sector
---------------------------------------------------------
1 | 0:00.00 | 6:18.62 | 0 | 28411
2 | 6:18.62 | 11:04.00 | 28412 | 78211
3 | 17:22.62 | 21:04.50 | 78212 | 173061
4 | 38:27.37 | 8:03.50 | 173062 | 209336
5 | 46:31.12 | 8:39.25 | 209337 | 248286
6 | 55:10.37 | 10:51.38 | 248287 | 297149
Track 1
Filename C:\! UPLOAD\Steve Lacy & Steve Potts - Flim-Flam (1991) [FLAC]\01 - The Crust.wav
Pre-gap length 0:00:02.00
Peak level 91.9 %
Extraction speed 3.0 X
Track quality 99.9 %
Test CRC 0A537393
Copy CRC 0A537393
Accurately ripped (confidence 1) [923FE10E] (AR v1)
Copy OK
Track 2
Filename C:\! UPLOAD\Steve Lacy & Steve Potts - Flim-Flam (1991) [FLAC]\02 - Flim-Flam.wav
Peak level 91.3 %
Extraction speed 3.3 X
Track quality 99.9 %
Test CRC 0F049428
Copy CRC 0F049428
Accurately ripped (confidence 1) [A40C07C7] (AR v1)
Copy OK
Track 3
Filename C:\! UPLOAD\Steve Lacy & Steve Potts - Flim-Flam (1991) [FLAC]\03 - 3 Points.wav
Peak level 80.3 %
Extraction speed 3.5 X
Track quality 99.9 %
Test CRC 6A1E95F9
Copy CRC 6A1E95F9
Accurately ripped (confidence 1) [36628ADF] (AR v1)
Copy OK
Track 4
Filename C:\! UPLOAD\Steve Lacy & Steve Potts - Flim-Flam (1991) [FLAC]\04 - The Whammies.wav
Peak level 97.0 %
Extraction speed 3.4 X
Track quality 100.0 %
Test CRC 827D5E3D
Copy CRC 827D5E3D
Accurately ripped (confidence 1) [A3F066D9] (AR v1)
Copy OK
Track 5
Filename C:\! UPLOAD\Steve Lacy & Steve Potts - Flim-Flam (1991) [FLAC]\05 - Rimane Poco.wav
Peak level 91.6 %
Extraction speed 3.5 X
Track quality 100.0 %
Test CRC 435DB75D
Copy CRC 435DB75D
Accurately ripped (confidence 1) [8348D533] (AR v1)
Copy OK
Track 6
Filename C:\! UPLOAD\Steve Lacy & Steve Potts - Flim-Flam (1991) [FLAC]\06 - The Gleam.wav
Peak level 91.2 %
Extraction speed 3.2 X
Track quality 99.9 %
Test CRC F52BDA19
Copy CRC F52BDA19
Accurately ripped (confidence 1) [01FBDB1D] (AR v1)
Copy OK
All tracks accurately ripped
No errors occurred
End of status report
---- CUETools DB Plugin V2.1.3
[CTDB TOCID: Rrom0cv6xLTjtfsKQEGjB0_Z5qM-] found, Submit result: Rrom0cv6xLTjtfsKQEGjB0_Z5qM- has been confirmed
[d6323b96] (1/1) Accurately ripped
==== Log checksum BCED658437F8E4F6384752B1073A1BCAC65D1FF64A74430D847A4FA1422E37EF ====
 
Содержание индексной карты (.CUE)
REM GENRE Jazz
REM DATE 1991
REM DISCID 420F7A06
REM COMMENT "ExactAudioCopy v1.0b3"
PERFORMER "Steve Lacy & Steve Potts"
TITLE "Flim-Flam"
FILE "01 - The Crust.wav" WAVE
TRACK 01 AUDIO
TITLE "The Crust"
PERFORMER "Steve Lacy & Steve Potts"
INDEX 01 00:00:00
FILE "02 - Flim-Flam.wav" WAVE
TRACK 02 AUDIO
TITLE "Flim-Flam"
PERFORMER "Steve Lacy & Steve Potts"
INDEX 01 00:00:00
FILE "03 - 3 Points.wav" WAVE
TRACK 03 AUDIO
TITLE "3 Points"
PERFORMER "Steve Lacy & Steve Potts"
INDEX 01 00:00:00
FILE "04 - The Whammies.wav" WAVE
TRACK 04 AUDIO
TITLE "The Whammies"
PERFORMER "Steve Lacy & Steve Potts"
INDEX 01 00:00:00
FILE "05 - Rimane Poco.wav" WAVE
TRACK 05 AUDIO
TITLE "Rimane Poco"
PERFORMER "Steve Lacy & Steve Potts"
INDEX 01 00:00:00
FILE "06 - The Gleam.wav" WAVE
TRACK 06 AUDIO
TITLE "The Gleam"
PERFORMER "Steve Lacy & Steve Potts"
INDEX 01 00:00:00
Доп. информация:
Recorded live on December 2, 1986 at Altes Schlachthaus, Berne, Switzerland.
 
Об альбоме (by Thom Jurek)
This live 1986 duet date between both Steves in the Steve Lacy sextet on soprano saxophones is, for intent purposes, a swinging affair.
This is a blowing date to be sure, with lots of interesting and remarkable improvisation, but both men are interested primarily in using their instruments to carry "song," which they did to the delight of the Swiss audience who heard them, and anyone who encounters this recording.
 
Состав
Steve Lacy - soprano saxophone (left channel)
Steve Potts - alto & soprano saxophone (right channel)
Any questions -> support@pro-jazz.com. По всем вопросам пишите -> support@pro-jazz.com
16:16
284
Нет комментариев. Ваш будет первым!