Вы используете незарегистрированную версию компонента "Вкладки"!

Поиск

(Free Jazz, Big Band) Sun Ra - Concert For The Comet Kohoutek - 1973, FLAC (tracks+.cue), lossless

Треклист:
Sun Ra / Concert For The Comet Kohoutek
Жанр: Free Jazz, Big Band
Страна-производитель диска: Germany
Год издания диска: 1993
Издатель (лейбл): ESP-Disk
Номер по каталогу: ESP-3033
Страна: US
Аудиокодек: FLAC (*.flac)
Тип рипа: tracks+.cue
Битрейт аудио: lossless
Продолжительность: 55:21
Источник (релизер): Demonoid
Наличие сканов в содержимом раздачи: нет
Треклист:
1. Kohoutek Intro (Ra) (1:10)
2. Astro Black (Ra) (1:50)
3. Variations of Kohoutek Themes (Discipline 27) (Ra) (5:12)
4. Journey through the Outer Darkness (Ra) (9:25)
5. Enlightenment (Dotson-Ra) (2:02)
6. Unknown Kohoutek (Love in Outer Space) (Ra) (7:16)
7. Discipline (15) (Ra) (12:39)
8. Outer Space E. M. (Emergency) (Life Is Splendid/Outer Space Employment Agency) (Ra) (7:40)
9. Space Is the Place (Ra) (7:56)
 
Лог создания рипа
Exact Audio Copy V0.99 prebeta 4 from 23. January 2008
EAC extraction logfile from 8. August 2009, 17:19
Sun Ra / Concert For the Comet Kohoutek
Used drive : TEAC DV-W24E Adapter: 1 ID: 0
Read mode : Secure
Utilize accurate stream : Yes
Defeat audio cache : No
Make use of C2 pointers : Yes
Read offset correction : 102
Overread into Lead-In and Lead-Out : No
Fill up missing offset samples with silence : Yes
Delete leading and trailing silent blocks : No
Null samples used in CRC calculations : No
Used interface : Native Win32 interface for Win NT & 2000
Gap handling : Not detected, thus appended to previous track
Used output format : User Defined Encoder
Selected bitrate : 768 kBit/s
Quality : High
Add ID3 tag : No
Command line compressor : C:\Programmi\Exact Audio Copy\FLAC\FLAC.EXE
Additional command line options : -6 -V -T "ARTIST=%a" -T "TITLE=%t" -T "ALBUM=%g" -T "DATE=%y" -T "TRACKNUMBER=%n" -T "GENRE=%m" -T "COMMENT=%e" %s -o %d
TOC of the extracted CD
Track | Start | Length | Start sector | End sector
---------------------------------------------------------
1 | 0:00.00 | 1:09.44 | 0 | 5218
2 | 1:09.44 | 1:50.35 | 5219 | 13503
3 | 3:00.04 | 5:12.27 | 13504 | 36930
4 | 8:12.31 | 9:25.13 | 36931 | 79318
5 | 17:37.44 | 2:02.50 | 79319 | 88518
6 | 19:40.19 | 7:16.25 | 88519 | 121243
7 | 26:56.44 | 12:39.07 | 121244 | 178175
8 | 39:35.51 | 7:48.55 | 178176 | 213330
9 | 47:24.31 | 7:56.63 | 213331 | 249093
Track 1
Filename C:\Documents and Settings\Utente\Documenti\Uploads\Sun Ra\Concert For the Comet Kohoutek\01. Kohoutek Intro.wav
Peak level 96.8 %
Track quality 100.0 %
Test CRC 7320652A
Copy CRC 7320652A
Accurately ripped (confidence 1) [5735C681]
Copy OK
Track 2
Filename C:\Documents and Settings\Utente\Documenti\Uploads\Sun Ra\Concert For the Comet Kohoutek\02. Astro Black.wav
Peak level 96.8 %
Track quality 100.0 %
Test CRC 567E176B
Copy CRC 567E176B
Accurately ripped (confidence 1) [27B4A860]
Copy OK
Track 3
Filename C:\Documents and Settings\Utente\Documenti\Uploads\Sun Ra\Concert For the Comet Kohoutek\03. Variations of Kohoutek Themes.wav
Peak level 96.8 %
Track quality 99.9 %
Test CRC 09C5410B
Copy CRC 09C5410B
Accurately ripped (confidence 1) [06408140]
Copy OK
Track 4
Filename C:\Documents and Settings\Utente\Documenti\Uploads\Sun Ra\Concert For the Comet Kohoutek\04. Journey Through The Outer Darkness.wav
Peak level 96.8 %
Track quality 100.0 %
Test CRC 03644547
Copy CRC 03644547
Accurately ripped (confidence 1) [39813ABC]
Copy OK
Track 5
Filename C:\Documents and Settings\Utente\Documenti\Uploads\Sun Ra\Concert For the Comet Kohoutek\05. Enlightement.wav
Peak level 96.8 %
Track quality 100.0 %
Test CRC C00B17DA
Copy CRC C00B17DA
Accurately ripped (confidence 1) [F2358AB7]
Copy OK
Track 6
Filename C:\Documents and Settings\Utente\Documenti\Uploads\Sun Ra\Concert For the Comet Kohoutek\06. Unknown Kohoutek.wav
Peak level 96.8 %
Track quality 99.9 %
Test CRC A87C8CE9
Copy CRC A87C8CE9
Accurately ripped (confidence 1) [788CD30A]
Copy OK
Track 7
Filename C:\Documents and Settings\Utente\Documenti\Uploads\Sun Ra\Concert For the Comet Kohoutek\07. Discipline.wav
Peak level 92.2 %
Track quality 100.0 %
Test CRC 8CAA9CEA
Copy CRC 8CAA9CEA
Accurately ripped (confidence 1) [916D394F]
Copy OK
Track 8
Filename C:\Documents and Settings\Utente\Documenti\Uploads\Sun Ra\Concert For the Comet Kohoutek\08. Outer Space E.M (Emergency).wav
Peak level 96.8 %
Track quality 100.0 %
Test CRC 9E48BFE2
Copy CRC 9E48BFE2
Accurately ripped (confidence 1) [A087AB41]
Copy OK
Track 9
Filename C:\Documents and Settings\Utente\Documenti\Uploads\Sun Ra\Concert For the Comet Kohoutek\09. Space Is The Place.wav
Peak level 94.5 %
Track quality 99.9 %
Test CRC 6AAA38AF
Copy CRC 6AAA38AF
Accurately ripped (confidence 1) [8ED1FAB5]
Copy OK
All tracks accurately ripped
No errors occurred
End of status report
------------------------------------------------------------
Exact Audio Copy V0.99 prebeta 4 from 23. January 2008
EAC extraction logfile from 8. August 2009, 17:20
Sun Ra / Concert For the Comet Kohoutek
Used drive : TEAC DV-W24E Adapter: 1 ID: 0
Read mode : Secure
Utilize accurate stream : Yes
Defeat audio cache : No
Make use of C2 pointers : Yes
Read offset correction : 102
Overread into Lead-In and Lead-Out : No
Fill up missing offset samples with silence : Yes
Delete leading and trailing silent blocks : No
Null samples used in CRC calculations : No
Used interface : Native Win32 interface for Win NT & 2000
Gap handling : Not detected, thus appended to previous track
Used output format : User Defined Encoder
Selected bitrate : 768 kBit/s
Quality : High
Add ID3 tag : No
Command line compressor : C:\Programmi\Exact Audio Copy\FLAC\FLAC.EXE
Additional command line options : -6 -V -T "ARTIST=%a" -T "TITLE=%t" -T "ALBUM=%g" -T "DATE=%y" -T "TRACKNUMBER=%n" -T "GENRE=%m" -T "COMMENT=%e" %s -o %d
TOC of the extracted CD
Track | Start | Length | Start sector | End sector
---------------------------------------------------------
1 | 0:00.00 | 1:09.44 | 0 | 5218
2 | 1:09.44 | 1:50.35 | 5219 | 13503
3 | 3:00.04 | 5:12.27 | 13504 | 36930
4 | 8:12.31 | 9:25.13 | 36931 | 79318
5 | 17:37.44 | 2:02.50 | 79319 | 88518
6 | 19:40.19 | 7:16.25 | 88519 | 121243
7 | 26:56.44 | 12:39.07 | 121244 | 178175
8 | 39:35.51 | 7:48.55 | 178176 | 213330
9 | 47:24.31 | 7:56.63 | 213331 | 249093
Track 1
Filename C:\Documents and Settings\Utente\Documenti\Uploads\Sun Ra\Concert For the Comet Kohoutek\01. Kohoutek Intro.wav
Peak level 96.8 %
Track quality 100.0 %
Test CRC 7320652A
Copy CRC 7320652A
Accurately ripped (confidence 1) [5735C681]
Copy OK
Track 2
Filename C:\Documents and Settings\Utente\Documenti\Uploads\Sun Ra\Concert For the Comet Kohoutek\02. Astro Black.wav
Peak level 96.8 %
Track quality 100.0 %
Test CRC 567E176B
Copy CRC 567E176B
Accurately ripped (confidence 1) [27B4A860]
Copy OK
Track 3
Filename C:\Documents and Settings\Utente\Documenti\Uploads\Sun Ra\Concert For the Comet Kohoutek\03. Variations of Kohoutek Themes.wav
Peak level 96.8 %
Track quality 99.9 %
Test CRC 09C5410B
Copy CRC 09C5410B
Accurately ripped (confidence 1) [06408140]
Copy OK
Track 4
Filename C:\Documents and Settings\Utente\Documenti\Uploads\Sun Ra\Concert For the Comet Kohoutek\04. Journey Through The Outer Darkness.wav
Peak level 96.8 %
Track quality 100.0 %
Test CRC 03644547
Copy CRC 03644547
Accurately ripped (confidence 1) [39813ABC]
Copy OK
Track 5
Filename C:\Documents and Settings\Utente\Documenti\Uploads\Sun Ra\Concert For the Comet Kohoutek\05. Enlightement.wav
Peak level 96.8 %
Track quality 100.0 %
Test CRC C00B17DA
Copy CRC C00B17DA
Accurately ripped (confidence 1) [F2358AB7]
Copy OK
Track 6
Filename C:\Documents and Settings\Utente\Documenti\Uploads\Sun Ra\Concert For the Comet Kohoutek\06. Unknown Kohoutek.wav
Peak level 96.8 %
Track quality 99.9 %
Test CRC A87C8CE9
Copy CRC A87C8CE9
Accurately ripped (confidence 1) [788CD30A]
Copy OK
Track 7
Filename C:\Documents and Settings\Utente\Documenti\Uploads\Sun Ra\Concert For the Comet Kohoutek\07. Discipline.wav
Peak level 92.2 %
Track quality 100.0 %
Test CRC 8CAA9CEA
Copy CRC 8CAA9CEA
Accurately ripped (confidence 1) [916D394F]
Copy OK
Track 8
Filename C:\Documents and Settings\Utente\Documenti\Uploads\Sun Ra\Concert For the Comet Kohoutek\08. Outer Space E.M (Emergency).wav
Peak level 96.8 %
Track quality 100.0 %
Test CRC 9E48BFE2
Copy CRC 9E48BFE2
Accurately ripped (confidence 1) [A087AB41]
Copy OK
Track 9
Filename C:\Documents and Settings\Utente\Documenti\Uploads\Sun Ra\Concert For the Comet Kohoutek\09. Space Is The Place.wav
Peak level 94.5 %
Track quality 99.9 %
Test CRC 6AAA38AF
Copy CRC 6AAA38AF
Accurately ripped (confidence 1) [8ED1FAB5]
Copy OK
All tracks accurately ripped
No errors occurred
End of status report
 
Содержание индексной карты (.CUE)
REM GENRE "Free Jazz"
REM DATE 1974
REM DISCID 780CF909
REM COMMENT "ExactAudioCopy v0.99pb4"
PERFORMER "Sun Ra"
TITLE "Concert For the Comet Kohoutek"
FILE "Sun Ra\Concert For the Comet Kohoutek\01. Kohoutek Intro.wav" WAVE
TRACK 01 AUDIO
TITLE "Kohoutek Intro"
PERFORMER "Sun Ra"
INDEX 01 00:00:00
FILE "Sun Ra\Concert For the Comet Kohoutek\02. Astro Black.wav" WAVE
TRACK 02 AUDIO
TITLE "Astro Black"
PERFORMER "Sun Ra"
INDEX 01 00:00:00
FILE "Sun Ra\Concert For the Comet Kohoutek\03. Variations of Kohoutek Themes.wav" WAVE
TRACK 03 AUDIO
TITLE "Variations of Kohoutek Themes"
PERFORMER "Sun Ra"
INDEX 01 00:00:00
FILE "Sun Ra\Concert For the Comet Kohoutek\04. Journey Through The Outer Darkness.wav" WAVE
TRACK 04 AUDIO
TITLE "Journey Through The Outer Darkness"
PERFORMER "Sun Ra"
INDEX 01 00:00:00
FILE "Sun Ra\Concert For the Comet Kohoutek\05. Enlightement.wav" WAVE
TRACK 05 AUDIO
TITLE "Enlightement"
PERFORMER "Sun Ra"
INDEX 01 00:00:00
FILE "Sun Ra\Concert For the Comet Kohoutek\06. Unknown Kohoutek.wav" WAVE
TRACK 06 AUDIO
TITLE "Unknown Kohoutek"
PERFORMER "Sun Ra"
INDEX 01 00:00:00
FILE "Sun Ra\Concert For the Comet Kohoutek\07. Discipline.wav" WAVE
TRACK 07 AUDIO
TITLE "Discipline"
PERFORMER "Sun Ra"
INDEX 01 00:00:00
FILE "Sun Ra\Concert For the Comet Kohoutek\08. Outer Space E.M (Emergency).wav" WAVE
TRACK 08 AUDIO
TITLE "Outer Space E.M (Emergency)"
PERFORMER "Sun Ra"
INDEX 01 00:00:00
FILE "Sun Ra\Concert For the Comet Kohoutek\09. Space Is The Place.wav" WAVE
TRACK 09 AUDIO
TITLE "Space Is The Place"
PERFORMER "Sun Ra"
INDEX 01 00:00:00
 
Лог проверки качества
d:\>d:\aucdtect -d/-m0 d:\zzz\*.wav
auCDtect: CD records authenticity detector, version 0.8.2
Copyright (c) 2004 Oleg Berngardt. All rights reserved.
Copyright (c) 2004 Alexander Djourik. All rights reserved.
------------------------------------------------------------
Processing file: [01. Kohoutek Intro.wav]
------------------------------------------------------------
This track looks like CDDA with probability 99%
------------------------------------------------------------
Processing file: [02. Astro Black.wav]
------------------------------------------------------------
This track looks like CDDA with probability 100%
------------------------------------------------------------
Processing file: [03. Variations of Kohoutek Themes.wav]
------------------------------------------------------------
This track looks like CDDA with probability 100%
------------------------------------------------------------
Processing file: [04. Journey Through The Outer Darkness.wav]
------------------------------------------------------------
This track looks like CDDA with probability 99%
------------------------------------------------------------
Processing file: [05. Enlightement.wav]
------------------------------------------------------------
This track looks like CDDA with probability 100%
------------------------------------------------------------
Processing file: [06. Unknown Kohoutek.wav]
------------------------------------------------------------
This track looks like CDDA with probability 99%
------------------------------------------------------------
Processing file: [07. Discipline.wav]
------------------------------------------------------------
This track looks like CDDA with probability 100%
------------------------------------------------------------
Processing file: [08. Outer Space E.M (Emergency).wav]
------------------------------------------------------------
This track looks like CDDA with probability 100%
------------------------------------------------------------
Processing file: [09. Space Is The Place.wav]
------------------------------------------------------------
This track looks like CDDA with probability 100%
------------------------------------------------------------
Final Conclusion:
------------------------------------------------------------
These tracks looks like CDDA with probability 100%
 
Скриншот спектра частот
Доп. информация:
 
Album Info
Live at Town Hall, New York City, Saturday 12/22/73.
[Location and titles from CD leaflet; several of the titles are incomplete or incorrect. Enlightenment incorrectly attributed to Ra only. Discipline 27 is the pre-mitotic version. Personnel rlc, with help from Hunter, who confirms his presence and says that cellist Alzo Wright "didn't have the bass concept". Hunter thinks Lex Humphries may also have been present on drums, but a second set of cymbals is not audible. Danny Thompson says that Alzo Wright also played drums. Thompson thinks the bassist was not Bill Davis; he says that correct execution of the 5/4 against 4/4 in Space Is the Place means it was a regular. He suggests Pat Patrick, but it's clearly a string bass. Boykins wasn't playing regularly with the band any more, and the bass is not well recorded, but he is the first choice. This would be his last recording with the Arkestra. Thompson suggests Griffin as well as Stephens on trombone. He also points out Ebah's singing on Space Is the Place]
From a rather poorly attended concert put on by ESP to feature Sun Ra and other artists associated with the label: Randy Burns, Amanda, Buddy Hughes, Miamis, Donald Raphael Garrett, and Paul Thornton (of Godz fame). Tapes were lost for many years, according to Tom Klatt. Hunter recalls that the band started playing late and had to stop after an hour. Bernard Stollman also says that the Arkestra went on last. "I knew if I put Sunny on first, he'd play for 3 or 4 hours." Hunter suspects that the tape was speeded up, judging from the effect on his cymbal sound.
 
Состав
Kwame Hadi-tp (solo on Discipline 27); Akh Tal Ebah-tp, flg, mellophone, voc; Dick Griffin or Charles Stephens-tb; Marshall Allen-as, ob, fl, perc; Danny Davis-as, fl, perc; John Gilmore-ts, perc, voc; Eloe Omoe-bcl, perc; Danny Thompson-bs, fl, perc; James Jacson-bsn, fl, Ancient Egyptian Infinity Drum; Alzo Wright-vln, clo, d; Ronnie Boykins-b; Sun Ra-Mini-Moog syn, org, declamation; Tommy "Bugs" Hunter-d; June Tyson-voc, dance; Space Ethnic Voices: prob. Judith Holton-dance, voc; prob. Cheryl Banks-dance, voc; Ruth Wright-voc, dance.
По всем вопросам пишите личное сообщение пользователю M0p94ok.
14:11
231
Нет комментариев. Ваш будет первым!