Поиск

(Jazz / Avantgard Jazz) Henry Threadgill - Makin' A Move - 1995, FLAC (image+.cue), lossless

(Jazz / Avantgard Jazz) Henry Threadgill - Makin' A Move - 1995, FLAC (image+.cue), lossless
Треклист:
Henry Threadgill / Makin' A Move
Жанр: Jazz / Contemporary Jazz
Год издания диска: 1995
Аудиокодек: FLAC (*.flac)
Тип рипа: image+.cue
Битрейт аудио: lossless
Продолжительность: 1:04:23
Источник (релизер): Own collection
Наличие сканов в содержимом раздачи: Folder.jpg
Треклист:
1. Noisy Flowers 6:42
2. Like It Feels 11:18
3. Official Silence 8:56
4. Refined Poverty 9:07
5. Make Hot And Give 7:56
6. The Mockingbird Sin 12:12
7. Dirty In The Right Places 8:10
 
Лог создания рипа
Exact Audio Copy V1.0 beta 2 from 29. April 2011
EAC extraction logfile from 30. June 2011, 11:33
Henry Threadgill / Makin' A Move
Used drive : HL-DT-STDVDRAM GU10N Adapter: 3 ID: 0
Read mode : Secure
Utilize accurate stream : Yes
Defeat audio cache : Yes
Make use of C2 pointers : No
Read offset correction : 667
Overread into Lead-In and Lead-Out : No
Fill up missing offset samples with silence : Yes
Delete leading and trailing silent blocks : No
Null samples used in CRC calculations : Yes
Used interface : Native Win32 interface for Win NT & 2000
Used output format : Internal WAV Routines
Sample format : 44.100 Hz; 16 Bit; Stereo
TOC of the extracted CD
Track | Start | Length | Start sector | End sector
---------------------------------------------------------
1 | 0:00.00 | 6:42.50 | 0 | 30199
2 | 6:42.50 | 11:18.00 | 30200 | 81049
3 | 18:00.50 | 8:56.12 | 81050 | 121261
4 | 26:56.62 | 9:07.08 | 121262 | 162294
5 | 36:03.70 | 7:56.15 | 162295 | 198009
6 | 44:00.10 | 12:12.57 | 198010 | 252966
7 | 56:12.67 | 8:10.40 | 252967 | 289756
Range status and errors
Selected range
Filename C:\Private\Music - to Oleg\Henry Threadgill 1995 - Makin' A Move\Henry Threadgill - Makin' A Move.wav
Peak level 100.0 %
Extraction speed 3.9 X
Range quality 100.0 %
Copy CRC A1252B62
Copy OK
No errors occurred
AccurateRip summary
Track 1 accurately ripped (confidence 5) [6D055EB2] (AR v1)
Track 2 accurately ripped (confidence 5) [0A46A389] (AR v1)
Track 3 accurately ripped (confidence 5) [6E8C0063] (AR v1)
Track 4 accurately ripped (confidence 5) [BF820924] (AR v1)
Track 5 accurately ripped (confidence 5) [5DA658C8] (AR v1)
Track 6 accurately ripped (confidence 5) [D143797E] (AR v1)
Track 7 accurately ripped (confidence 5) [9DFEEA5F] (AR v1)
All tracks accurately ripped
End of status report
 
Содержание индексной карты (.CUE)
REM GENRE "Contemporary Jazz"
REM DATE 1995
REM DISCID 520F1707
REM COMMENT "ExactAudioCopy v1.0b2"
PERFORMER "Henry Threadgill"
TITLE "Makin' A Move"
FILE "Henry Threadgill - Makin' A Move.flac" WAVE
TRACK 01 AUDIO
TITLE "Noisy Flowers"
PERFORMER "Henry Threadgill"
INDEX 01 00:00:00
TRACK 02 AUDIO
TITLE "Like It Feels"
PERFORMER "Henry Threadgill"
INDEX 01 06:42:50
TRACK 03 AUDIO
TITLE "Official Silence"
PERFORMER "Henry Threadgill"
INDEX 00 17:58:54
INDEX 01 18:00:50
TRACK 04 AUDIO
TITLE "Refined Poverty"
PERFORMER "Henry Threadgill"
INDEX 00 26:54:66
INDEX 01 26:56:62
TRACK 05 AUDIO
TITLE "Make Hot And Give"
PERFORMER "Henry Threadgill"
INDEX 00 36:01:11
INDEX 01 36:03:70
TRACK 06 AUDIO
TITLE "The Mockingbird Sin"
PERFORMER "Henry Threadgill"
INDEX 01 44:00:10
TRACK 07 AUDIO
TITLE "Dirty In The Right Places"
PERFORMER "Henry Threadgill"
INDEX 01 56:12:67
Состав:
Henry Threadgill (saxophone, alto saxophone);
Brandon Ross (guitar, electric guitar);
Ed Cherry (acoustic guitar, electric guitar, steel guitar);
James Emery (steel guitar);
Ayodele Aubert (classical guitar);
Diedre Murray, Dixon Tourre, Michelle Kinney (cello);
Mark Taylor (French horn);
Edwin Rodriguez, Marcus Rojas (tuba);
Myra Melford (piano);
Pheeroan akLaff (drums).
Другие мои раздачи - http://rutracker.org/forum/tracker.php?rid=13061466
По всем вопросам пишите личное сообщение пользователю M0p94ok.
14:10
228
Нет комментариев. Ваш будет первым!