Поиск

(Modern Creative, Contemporary Jazz) The Gordon Beck Quartet (John McLaughlin, Jeff Clyne, Tony Oxley) - Experiments with Pops (1967) {Art of Life AL1001-2, USA} {Remaster, 2000} - 2003, APE (image+.cue) lossless

(Modern Creative, Contemporary Jazz) The Gordon Beck Quartet (John McLaughlin, Jeff Clyne, Tony Oxley) - Experiments with Pops (1967) {Art of Life AL1001-2, USA} {Remaster, 2000} - 2003, APE (image+.cue) lossless
Треклист:
The Gordon Beck Quartet - Experiments with Pops
Жанр: Modern Creative, Contemporary Jazz
Страна-производитель диска: USA
Год издания диска: 2003
Издатель (лейбл): Major Minor Records (1968) / Art of Life Records (2003)
Номер по каталогу: SMLP21 / AL1001-2
Аудио кодек: APE (*.ape)
Тип рипа: image+.cue
Битрейт аудио: lossless
Продолжительность: 00:39:30
Источник (релизер): barin99
Наличие сканов в содержимом раздачи: да
Треклист:
1. These Boots Are Made for Walking 4:03
2. Norwegian Wood (This Bird Has Flown) 4:18
3. Sunny 3:34
4. Up, Up and Away 8:34
5. Michelle 5:14
6. I Can See for Miles 3:36
7. Good Vibrations 5:07
8. Monday, Monday 5:01
Originally recorded at Lansdowne Studios in London, England in August 1967 for Major Minor Records.
Digitally mastered at Art of Life Studios in Reading, Pennsylvania in December 2000 by Paul G. Kohler ("Single Speed Glass Mastered").
Credits:
Gordon Beck — Piano
John McLaughlin — Guitar
Jeff Clyne — Bass
Tony Oxley — Drums
Engineer – Adrian Kerridge
Producer – Ray Horricks
Remastered By – Paul G. Kohler
Original album artwork by Stephen Hill. Original album cover artwork, liner notes and layout recreated for compact disc by Paul G. Kohler.
 
Лог создания рипа (EAC Log)
Exact Audio Copy V0.99 prebeta 5 from 4. May 2009
EAC extraction logfile from 1. May 2010, 18:13
Gordon Beck, John McLaughlin, Jeff Clyne, Tony Oxley / Experiments With Pops
Used drive : TSSTcorpDVD+-RW TS-U633A Adapter: 0 ID: 1
Read mode : Secure
Utilize accurate stream : Yes
Defeat audio cache : Yes
Make use of C2 pointers : No
Read offset correction : 6
Overread into Lead-In and Lead-Out : No
Fill up missing offset samples with silence : Yes
Delete leading and trailing silent blocks : No
Null samples used in CRC calculations : Yes
Used interface : Native Win32 interface for Win NT & 2000
Used output format : Internal WAV Routines
Sample format : 44.100 Hz; 16 Bit; Stereo
TOC of the extracted CD
Track | Start | Length | Start sector | End sector
---------------------------------------------------------
1 | 0:00.00 | 4:03.30 | 0 | 18254
2 | 4:03.30 | 4:18.19 | 18255 | 37623
3 | 8:21.49 | 3:34.27 | 37624 | 53700
4 | 11:56.01 | 8:34.67 | 53701 | 92317
5 | 20:30.68 | 5:14.04 | 92318 | 115871
6 | 25:44.72 | 3:36.54 | 115872 | 132125
7 | 29:21.51 | 5:07.46 | 132126 | 155196
8 | 34:29.22 | 5:01.26 | 155197 | 177797
Range status and errors
Selected range
Filename C:\_Arc\EAC_Out\Gordon Beck, John McLaughlin, Jeff Clyne, Tony Oxley - Experiments With Pops\Gordon Beck, John McLaughlin, Jeff Clyne, Tony Oxley - Experiments With Pops.wav
Peak level 100.0 %
Range quality 99.9 %
Copy CRC B936DEBD
Copy OK
No errors occurred
AccurateRip summary
Track 1 accurately ripped (confidence 1) [D11E9C14]
Track 2 accurately ripped (confidence 1) [D1EA3BC3]
Track 3 accurately ripped (confidence 1) [C1D28C38]
Track 4 accurately ripped (confidence 1) [0312F90E]
Track 5 accurately ripped (confidence 1) [A11601D4]
Track 6 accurately ripped (confidence 1) [B7170431]
Track 7 accurately ripped (confidence 1) [4B12466B]
Track 8 accurately ripped (confidence 1) [D32106B7]
All tracks accurately ripped
End of status report
 
Содержание индексной карты (.CUE)
REM GENRE "Contemporary Jazz"
REM DATE 1967
REM DISCID 58094208
REM COMMENT "ExactAudioCopy v0.99pb5"
PERFORMER "Gordon Beck, John McLaughlin, Jeff Clyne, Tony Oxley"
TITLE "Experiments With Pops"
FILE "G. Beck, J. McLaughlin, J. Clyne, T. Oxley - Experiments With Pops.ape" WAVE
TRACK 01 AUDIO
TITLE "These Boots Are Made For Walking"
PERFORMER "Gordon Beck, John McLaughlin, Jeff Clyne, Tony Oxley"
FLAGS DCP
INDEX 01 00:00:00
TRACK 02 AUDIO
TITLE "Norwegian Wood"
PERFORMER "Gordon Beck, John McLaughlin, Jeff Clyne, Tony Oxley"
FLAGS DCP
INDEX 00 03:59:31
INDEX 01 04:03:30
TRACK 03 AUDIO
TITLE "Sunny"
PERFORMER "Gordon Beck, John McLaughlin, Jeff Clyne, Tony Oxley"
FLAGS DCP
INDEX 00 08:17:50
INDEX 01 08:21:49
TRACK 04 AUDIO
TITLE "Up, Up And Away"
PERFORMER "Gordon Beck, John McLaughlin, Jeff Clyne, Tony Oxley"
FLAGS DCP
INDEX 00 11:52:02
INDEX 01 11:56:01
TRACK 05 AUDIO
TITLE "Michelle"
PERFORMER "Gordon Beck, John McLaughlin, Jeff Clyne, Tony Oxley"
FLAGS DCP
INDEX 00 20:26:69
INDEX 01 20:30:68
TRACK 06 AUDIO
TITLE "I Can See For Miles"
PERFORMER "Gordon Beck, John McLaughlin, Jeff Clyne, Tony Oxley"
FLAGS DCP
INDEX 00 25:40:73
INDEX 01 25:44:72
TRACK 07 AUDIO
TITLE "Good Vibrations"
PERFORMER "Gordon Beck, John McLaughlin, Jeff Clyne, Tony Oxley"
FLAGS DCP
INDEX 00 29:17:52
INDEX 01 29:21:51
TRACK 08 AUDIO
TITLE "Monday, Monday"
PERFORMER "Gordon Beck, John McLaughlin, Jeff Clyne, Tony Oxley"
FLAGS DCP
INDEX 00 34:25:23
INDEX 01 34:29:22
 
AMG
"Beck was a self-taught musician who left the engineering world to become a professional player in England. He eventually blossomed into one of Europe's finest studio and session pianists, able to function effectively in many settings and alongside any vocalist or instrumentalist. His father was a violinist, and Beck started his jazz career with various London bands before joining Tubby Hayes in 1962. Beck stayed in that group three years, making his first tours outside England, before beginning his own band. Beck's trio was the house band at the Ronnie Scott Club in the late '60s, and in 1967 Beck began cutting albums and doing studio work. He gained international attention from 1969 — '72 as part of Phil Woods European Rhythm Machine, his strong playing and propulsive solos making him an effective contrasting voice within the group to Woods. The Machine toured America in 1971, and Beck left the following year to start another band, Gyroscope, and also reactivated his trio. He was part of the group Piano Conclave in the early '70s, but became a busy freelancer from 1974 on, working with major stars like Lena Horne, Gary Burton, Clark Terry, Charles Tolliver and Woods again. He also got involved in education, becoming co-organizer of the Treforest Summer School in 1978."
 
About
Originally released in 1968 on Major Minor Records in the UK and now available on CD for the first time ever! Digitally re-mastered from the original Stereo analog master tapes. Includes the original album cover artwork and liner notes exactly as they appear on the original LP. Features Gordon Beck on piano, John McLaughlin on guitar, Jeff Clyne on bass and Tony Oxley on drums.
 
The Guardian
This is a real Britjazz landmark from the late 1960s, with a 25-year-old John McLaughlin joining the formidable pianist Gordon Beck's trio, which also featured the now-abstract percussionist, composer and Cecil Taylor partner Tony Oxley and elegant bassist Jeff Clyne. The tunes are all 60s pop hits, but the quartet explores them purely as Jazz vehicles, with a full-on attack, sweeping freedom and strong collective feel. McLaughlin tears into "These Boots Are Made for Walking" at breakneck speed, Beck's sumptuous technique delivers a luxurious unaccompanied "Sunny", and The Who's "I Can See for Miles" is taken slowly as a mood-piece for McLaughlin's slurred guitar and Oxley's delicate brushwork. "Good Vibrations" unexpectedly arouses the guitarist's early love of flamenco, and "Monday Monday" gets the Lee Morgan "Sidewinder" treatment with some sensational Oxley drumming behind the gritty guitar break.
Robin Denselow - The Guardian
... Великолепные альбом, исполнители и ремастер ...
По всем вопросам пишите личное сообщение пользователю M0p94ok.
14:11
305
Нет комментариев. Ваш будет первым!