Вы используете незарегистрированную версию компонента "Вкладки"!

Поиск

(Free Jazz) Bert Wilson & Rebirth - Endless Fingers - 1997, FLAC (image+.cue), lossless

(Free Jazz) Bert Wilson & Rebirth - Endless Fingers - 1997, FLAC (image+.cue), lossless
Треклист:
Bert Wilson & Rebirth - Endless Fingers
Жанр: Free Jazz
Страна-производитель диска: США
Год издания: 1997
Издатель (лейбл): Arabesque Jazz
Номер по каталогу: AJ0123
Аудиокодек: FLAC (*.flac)
Тип рипа: image+.cue
Битрейт аудио: lossless
Продолжительность: 68:46
Источник (релизер): dreadbull (hqshare)
Наличие сканов в содержимом раздачи: да
Треклист:
01. Endless Fingers (Wilson) - 4:28
02. Ambrosia (Wilson) - 7:42
03. Onslaught (Wilson) - 5:09
04. Intunedon (Wilson) - 6:22
05. Rolling Cycles (Wilson) - 7:20
06. Love Heals (Wilson) - 8:00
07. Once Is Never Enough (Wilson) - 6:07
08. The One Behind It All (Wilson) - 4:51
09. Craigonometry (Wilson) - 6:31
10. Dee Dee's Rainbow (Wilson) - 5:18
11. Libra (Wilson) - 6:57
Состав:
Bert Wilson - soprano saxophone, alto saxophone, tenor saxophone, bass clarinet
Nancy Curtis - flute, piccolo
Craig Hoyer - piano
Dan Schulte - bass (#2,4-7,9,11)
Peter Vinikow - bass (#1,3,8,10)
Bob Meyer - drums
Chuck Stentz - tenor saxophone (#3,8)
Recorded at Randy Porter's studio, Portland, OR on June 7-8, 1994 (#2,3,5-7,11) and Infinity Studio, Seattle, WA on July 28, 1994 (#1,4,8-10).
 
Лог создания рипа
Exact Audio Copy V1.0 beta 3 from 29. August 2011
EAC extraction logfile from 8. October 2013, 16:46
Bert Wilson / Endless Fingers
Used drive : ASUS DRW-22B2L Adapter: 0 ID: 0
Read mode : Secure
Utilize accurate stream : Yes
Defeat audio cache : Yes
Make use of C2 pointers : No
Read offset correction : 6
Overread into Lead-In and Lead-Out : No
Fill up missing offset samples with silence : Yes
Delete leading and trailing silent blocks : No
Null samples used in CRC calculations : Yes
Used interface : Native Win32 interface for Win NT & 2000
Used output format : User Defined Encoder
Selected bitrate : 128 kBit/s
Quality : High
Add ID3 tag : Yes
Command line compressor : C:\Program Files (x86)\FLAC\flac.exe
Additional command line options : -8 -V -T "ARTIST=%artist%" -T "TITLE=%title%" -T "ALBUM=%albumtitle%" -T "DATE=%year%" -T "TRACKNUMBER=%tracknr%" -T "GENRE=%genre%" -T "PERFORMER=%albuminterpret%" -T "COMPOSER=%composer%" %haslyrics%--tag-from-file=LYRICS="%lyricsfile%"%haslyrics% -T "ALBUMARTIST=%albumartist%" -T "DISCNUMBER=%cdnumber%" -T "TOTALDISCS=%totalcds%" -T "TOTALTRACKS=%numtracks%" -T "COMMENT=%comment%" %source% -o %dest%
TOC of the extracted CD
Track | Start | Length | Start sector | End sector
---------------------------------------------------------
1 | 0:00.00 | 4:28.22 | 0 | 20121
2 | 4:28.22 | 7:42.35 | 20122 | 54806
3 | 12:10.57 | 5:09.05 | 54807 | 77986
4 | 17:19.62 | 6:21.65 | 77987 | 106626
5 | 23:41.52 | 7:20.05 | 106627 | 139631
6 | 31:01.57 | 7:59.58 | 139632 | 175614
7 | 39:01.40 | 6:07.37 | 175615 | 203176
8 | 45:09.02 | 4:50.43 | 203177 | 224969
9 | 49:59.45 | 6:30.45 | 224970 | 254264
10 | 56:30.15 | 5:18.15 | 254265 | 278129
11 | 61:48.30 | 6:57.25 | 278130 | 309429
Range status and errors
Selected range
Filename G:\Donkey Files\Bert Wilson & Rebirth - Endless Fingers (1997, Arabesque) [eac-flac-scans] byDrBull\Bert Wilson - Endless Fingers.wav
Peak level 100.0 %
Extraction speed 6.0 X
Range quality 99.9 %
Test CRC 15640E28
Copy CRC 15640E28
Copy OK
No errors occurred
AccurateRip summary
Track 1 not present in database
Track 2 not present in database
Track 3 not present in database
Track 4 not present in database
Track 5 not present in database
Track 6 not present in database
Track 7 not present in database
Track 8 not present in database
Track 9 not present in database
Track 10 not present in database
Track 11 not present in database
None of the tracks are present in the AccurateRip database
End of status report
---- CUETools DB Plugin V2.1.3
[CTDB TOCID: Wc5d5jDvU22niNl3vOvNu4Q847A-] disk not present in database, Submit result: Wc5d5jDvU22niNl3vOvNu4Q847A- has been uploaded
 
Содержание индексной карты (.CUE)
REM GENRE Jazz
REM DATE 1997
REM DISCID 70101D0B
REM COMMENT "ExactAudioCopy v1.0b3"
PERFORMER "Bert Wilson & Rebirth"
TITLE "Endless Fingers"
FILE "Bert Wilson & Rebirth - Endless Fingers.wav" WAVE
TRACK 01 AUDIO
TITLE "Endless Fingers"
PERFORMER "Bert Wilson & Rebirth"
INDEX 01 00:00:00
TRACK 02 AUDIO
TITLE "Ambrosia"
PERFORMER "Bert Wilson & Rebirth"
INDEX 00 04:24:72
INDEX 01 04:28:22
TRACK 03 AUDIO
TITLE "Onslaught"
PERFORMER "Bert Wilson & Rebirth"
INDEX 00 12:08:64
INDEX 01 12:10:57
TRACK 04 AUDIO
TITLE "Intunedon"
PERFORMER "Bert Wilson & Rebirth"
INDEX 00 17:17:35
INDEX 01 17:19:62
TRACK 05 AUDIO
TITLE "Rolling Cycles"
PERFORMER "Bert Wilson & Rebirth"
INDEX 00 23:39:25
INDEX 01 23:41:52
TRACK 06 AUDIO
TITLE "Love Heals"
PERFORMER "Bert Wilson & Rebirth"
INDEX 00 30:58:37
INDEX 01 31:01:57
TRACK 07 AUDIO
TITLE "Once Is Never Enough"
PERFORMER "Bert Wilson & Rebirth"
INDEX 01 39:01:40
TRACK 08 AUDIO
TITLE "The One Behind It All"
PERFORMER "Bert Wilson & Rebirth"
INDEX 00 45:06:50
INDEX 01 45:09:02
TRACK 09 AUDIO
TITLE "Craigonometry"
PERFORMER "Bert Wilson & Rebirth"
INDEX 00 49:57:02
INDEX 01 49:59:45
TRACK 10 AUDIO
TITLE "Dee Dee's Rainbow"
PERFORMER "Bert Wilson & Rebirth"
INDEX 00 56:26:55
INDEX 01 56:30:15
TRACK 11 AUDIO
TITLE "Libra"
PERFORMER "Bert Wilson & Rebirth"
INDEX 00 61:47:30
INDEX 01 61:48:30
 
Отчет CUETools
[CUETools log; Date: 02.11.2013 3:04:10; Version: 2.1.4]
[CTDB TOCID: Wc5d5jDvU22niNl3vOvNu4Q847A-] found.
Track | CTDB Status
1 | (1/1) Accurately ripped
2 | (1/1) Accurately ripped
3 | (1/1) Accurately ripped
4 | (1/1) Accurately ripped
5 | (1/1) Accurately ripped
6 | (1/1) Accurately ripped
7 | (1/1) Accurately ripped
8 | (1/1) Accurately ripped
9 | (1/1) Accurately ripped
10 | (1/1) Accurately ripped
11 | (1/1) Accurately ripped
[AccurateRip ID: 001c261a-00f56538-70101d0b] disk not present in database.
Track Peak [ CRC32 ] [W/O NULL] [ LOG ]
-- 100,0 [15640E28] [B2DCCE08] CRC32
01 91,6 [73E1271C] [0BB287A3]
02 90,5 [9DCF97BB] [5EFC0049]
03 100,0 [86A3B9A7] [5F98D21D]
04 90,2 [8ACBF981] [203798BE]
05 100,0 [58E2EE76] [E04F8C52]
06 97,0 [6296C0F5] [693593A8]
07 91,1 [3C65268D] [F26C4E06]
08 100,0 [D204A1D8] [26E2FFCA]
09 97,0 [13A58629] [A02970E2]
10 87,0 [F9EFCE51] [874DA628]
11 100,0 [8364DACA] [AF036A4F]
 
Review by Scott Yanow
Bert Wilson, a survivor of the 1960s, has maintained a low profile through the decades but is still a major improviser. Most of his recordings for the past 15 years have been with his own FMO label, making this better-distributed effort for Arabesque probably the most available of all of his sets. Wilson, who switches between alto, tenor, bass clarinet, and soprano, has an original sound on all of his instruments, inspired by the freer flights of Eric Dolphy and Ornette Coleman. Teamed up with the fine flutist Nancy Curtis, pianist Craig Hoyer, either Dan Schulte or Peter Vinikow on bass, and drummer Bob Meyer, Wilson displays his versatility on originals that are generally straight-ahead but open to explorative solos; his bass clarinet cadenza on the opening "Endless Fingers" is particularly memorable. Two songs add the tenor of Chuck Stentz with "Onslaught" being a colorful and boppish tenor battle. A particularly impressive effort with inventive playing from all of the musicians, this adventurous but not inaccessible set of original music serves as a perfect introduction to the talented Bert Wilson.
Any questions -> support@pro-jazz.com. По всем вопросам пишите -> support@pro-jazz.com
19:50
182
Нет комментариев. Ваш будет первым!