Вы используете незарегистрированную версию компонента "Вкладки"!

Поиск

(Free Improvisation / Contemporary Jazz / Solo Piano) Howard Riley - Live With Repertoire - 2013, FLAC (tracks+.cue), lossless

(Free Improvisation / Contemporary Jazz / Solo Piano) Howard Riley - Live With Repertoire - 2013, FLAC (tracks+.cue), lossless
Треклист:
Howard Riley - Live With Repertoire
Жанр: Free Improvisation / Contemporary Jazz / Solo Piano
Страна-производитель диска: Lithuania
Год издания: 2013
Издатель (лейбл): NoBusiness Records
Номер по каталогу: NBCD 58
Аудиокодек: FLAC (*.flac)
Тип рипа: tracks+.cue
Битрейт аудио: lossless
Продолжительность: 00:53:37
Источник (релизер): nnm, Джаз Клуб, 27 октября, 2013 / спасибо mishka1981
Наличие сканов в содержимом раздачи: да / *.jpg (300 dpi)
Треклист:
1. Monk's Mood (04:50)
2. Ba-Lue Bolivar Ba-Lues Are (03:45)
3. Darn That Dream (04:54)
4. Now One (03:07)
5. Ruby, My Dear (04:30)
6. Now Two (03:11)
7. Round Midnight (06:41)
8. I'm Getting Sentimental Over You (05:42)
9. Formerly (04:15)
10. Body And Soul (06:21)
11. Well You Needn't (05:37)
12. Signing Off (01:12)
Tracks 4, 6, 9 and 12 by Howard Riley
all other tracks are 'standards' and / or Thelonious Monk compositions
Доп. информация:
Musicians:
HOWARD RILEY - piano
Recorded in Concert for Leicester Jazz House at Embrance Arts, Leicester on 11th November 2011
HOWARD RILEY - Live With Repertoire nobusinessrecords.com
HOWARD RILEY efi.group.shef.ac.uk
HOWARD RILEY from Wikipedia, the free encyclopedia
 
... photo ...
 
Лог создания рипа
Exact Audio Copy V1.0 beta 1 from 15. November 2010
EAC extraction logfile from 27. October 2013, 15:17
Howard Riley / Live With Repertoire
Used drive : TSSTcorpCDDVDW TS-L633A Adapter: 3 ID: 0
Read mode : Secure
Utilize accurate stream : Yes
Defeat audio cache : Yes
Make use of C2 pointers : No
Read offset correction : 6
Overread into Lead-In and Lead-Out : No
Fill up missing offset samples with silence : Yes
Delete leading and trailing silent blocks : No
Null samples used in CRC calculations : Yes
Used interface : Installed external ASPI interface
Gap handling : Appended to previous track
Used output format : User Defined Encoder
Selected bitrate : 896 kBit/s
Quality : High
Add ID3 tag : No
Command line compressor : C:\Program Files\Exact Audio Copy\FLAC\FLAC.EXE
Additional command line options : -8 -V -T "ARTIST=%a" -T "TITLE=%t" -T "ALBUM=%g" -T "DATE=%y" -T "TRACKNUMBER=%n" -T "TOTALTRACKS=%x" -T "GENRE=%m" -T "ALBUMARTIST=%v" -T "ALBUM ARTIST=%v" -T "COMMENT=EAC Secure Mode, Test & Copy, AccurateRip, FLAC -8" %s
TOC of the extracted CD
Track | Start | Length | Start sector | End sector
---------------------------------------------------------
1 | 0:00.00 | 4:50.33 | 0 | 21782
2 | 4:50.33 | 3:45.18 | 21783 | 38675
3 | 8:35.51 | 4:54.27 | 38676 | 60752
4 | 13:30.03 | 3:07.63 | 60753 | 74840
5 | 16:37.66 | 4:30.11 | 74841 | 95101
6 | 21:08.02 | 3:11.08 | 95102 | 109434
7 | 24:19.10 | 6:42.00 | 109435 | 139584
8 | 31:01.10 | 5:42.29 | 139585 | 165263
9 | 36:43.39 | 4:15.08 | 165264 | 184396
10 | 40:58.47 | 6:21.18 | 184397 | 212989
11 | 47:19.65 | 5:37.74 | 212990 | 238338
12 | 52:57.64 | 1:12.72 | 238339 | 243810
Track 1
Filename C:\MY RIPS\01 - Monk's Mood.wav
Pre-gap length 0:00:02.00
Peak level 96.6 %
Extraction speed 1.1 X
Track quality 100.0 %
Test CRC 7EAA0FC7
Copy CRC 7EAA0FC7
Track not present in AccurateRip database
Copy OK
Track 2
Filename C:\MY RIPS\02 - Ba-Lue Bolivar Ba-Lues Are.wav
Pre-gap length 0:00:03.00
Peak level 96.6 %
Extraction speed 1.2 X
Track quality 100.0 %
Test CRC DD4FCC91
Copy CRC DD4FCC91
Track not present in AccurateRip database
Copy OK
Track 3
Filename C:\MY RIPS\03 - Darn That Dream.wav
Pre-gap length 0:00:03.00
Peak level 96.6 %
Extraction speed 1.4 X
Track quality 100.0 %
Test CRC FA72034D
Copy CRC FA72034D
Track not present in AccurateRip database
Copy OK
Track 4
Filename C:\MY RIPS\04 - Now One.wav
Pre-gap length 0:00:03.00
Peak level 96.6 %
Extraction speed 1.2 X
Track quality 100.0 %
Test CRC 6DAE036C
Copy CRC 6DAE036C
Track not present in AccurateRip database
Copy OK
Track 5
Filename C:\MY RIPS\05 - Ruby, My Dear.wav
Pre-gap length 0:00:03.00
Peak level 96.6 %
Extraction speed 1.5 X
Track quality 100.0 %
Test CRC D1595980
Copy CRC D1595980
Track not present in AccurateRip database
Copy OK
Track 6
Filename C:\MY RIPS\06 - Now Two.wav
Pre-gap length 0:00:03.00
Peak level 96.6 %
Extraction speed 1.5 X
Track quality 100.0 %
Test CRC 2EFEF6A7
Copy CRC 2EFEF6A7
Track not present in AccurateRip database
Copy OK
Track 7
Filename C:\MY RIPS\07 - Round Midnight.wav
Pre-gap length 0:00:03.00
Peak level 96.6 %
Extraction speed 1.7 X
Track quality 100.0 %
Test CRC FE459228
Copy CRC FE459228
Track not present in AccurateRip database
Copy OK
Track 8
Filename C:\MY RIPS\08 - I'm Getting Sentimental Over You.wav
Pre-gap length 0:00:03.00
Peak level 96.6 %
Extraction speed 1.8 X
Track quality 100.0 %
Test CRC B2E2E00F
Copy CRC B2E2E00F
Track not present in AccurateRip database
Copy OK
Track 9
Filename C:\MY RIPS\09 - Formerly.wav
Pre-gap length 0:00:03.00
Peak level 96.6 %
Extraction speed 1.8 X
Track quality 100.0 %
Test CRC 4F4E9751
Copy CRC 4F4E9751
Track not present in AccurateRip database
Copy OK
Track 10
Filename C:\MY RIPS\10 - Body And Soul.wav
Pre-gap length 0:00:03.00
Peak level 96.6 %
Extraction speed 1.9 X
Track quality 100.0 %
Test CRC 5647446D
Copy CRC 5647446D
Track not present in AccurateRip database
Copy OK
Track 11
Filename C:\MY RIPS\11 - Well You Needn't.wav
Pre-gap length 0:00:03.00
Peak level 96.6 %
Extraction speed 2.1 X
Track quality 100.0 %
Test CRC 1F04AB8D
Copy CRC 1F04AB8D
Track not present in AccurateRip database
Copy OK
Track 12
Filename C:\MY RIPS\12 - Signing Off.wav
Pre-gap length 0:00:03.00
Peak level 96.6 %
Extraction speed 1.5 X
Track quality 100.0 %
Test CRC 49C13F85
Copy CRC 49C13F85
Track not present in AccurateRip database
Copy OK
None of the tracks are present in the AccurateRip database
No errors occurred
End of status report
==== Log checksum 89F0A6FAF3D734E7C655C931422BD01A173DA2E399E04AC6C96863DE2B86DD39 ====
 
Содержание индексной карты (.CUE)
REM GENRE Jazz
REM DATE 2013
REM DISCID A20CB20C
REM COMMENT "ExactAudioCopy v1.0b1"
PERFORMER "Howard Riley"
TITLE "Live With Repertoire"
FILE "01 - Monk's Mood.wav" WAVE
TRACK 01 AUDIO
TITLE "Monk's Mood"
PERFORMER "Howard Riley"
INDEX 01 00:00:00
TRACK 02 AUDIO
TITLE "Ba-Lue Bolivar Ba-Lues Are"
PERFORMER "Howard Riley"
INDEX 00 04:47:33
FILE "02 - Ba-Lue Bolivar Ba-Lues Are.wav" WAVE
INDEX 01 00:00:00
TRACK 03 AUDIO
TITLE "Darn That Dream"
PERFORMER "Howard Riley"
INDEX 00 03:42:18
FILE "03 - Darn That Dream.wav" WAVE
INDEX 01 00:00:00
TRACK 04 AUDIO
TITLE "Now One"
PERFORMER "Howard Riley"
INDEX 00 04:51:27
FILE "04 - Now One.wav" WAVE
INDEX 01 00:00:00
TRACK 05 AUDIO
TITLE "Ruby, My Dear"
PERFORMER "Howard Riley"
INDEX 00 03:04:63
FILE "05 - Ruby, My Dear.wav" WAVE
INDEX 01 00:00:00
TRACK 06 AUDIO
TITLE "Now Two"
PERFORMER "Howard Riley"
INDEX 00 04:27:11
FILE "06 - Now Two.wav" WAVE
INDEX 01 00:00:00
TRACK 07 AUDIO
TITLE "Round Midnight"
PERFORMER "Howard Riley"
INDEX 00 03:08:08
FILE "07 - Round Midnight.wav" WAVE
INDEX 01 00:00:00
TRACK 08 AUDIO
TITLE "I'm Getting Sentimental Over You"
PERFORMER "Howard Riley"
INDEX 00 06:39:00
FILE "08 - I'm Getting Sentimental Over You.wav" WAVE
INDEX 01 00:00:00
TRACK 09 AUDIO
TITLE "Formerly"
PERFORMER "Howard Riley"
INDEX 00 05:39:29
FILE "09 - Formerly.wav" WAVE
INDEX 01 00:00:00
TRACK 10 AUDIO
TITLE "Body And Soul"
PERFORMER "Howard Riley"
INDEX 00 04:12:08
FILE "10 - Body And Soul.wav" WAVE
INDEX 01 00:00:00
TRACK 11 AUDIO
TITLE "Well You Needn't"
PERFORMER "Howard Riley"
INDEX 00 06:18:18
FILE "11 - Well You Needn't.wav" WAVE
INDEX 01 00:00:00
TRACK 12 AUDIO
TITLE "Signing Off"
PERFORMER "Howard Riley"
INDEX 00 05:34:74
FILE "12 - Signing Off.wav" WAVE
INDEX 01 00:00:00
 
auCDtect Task Manager
-----------------------
DON'T MODIFY THIS FILE
-----------------------
PERFORMER: auCDtect Task Manager, ver. 1.5.1RC6 build 1.5.1.7
Copyright (c) 2008-2010 y-soft. All rights reserved
http://y-soft.org
ANALYZER: auCDtect: CD records authenticity detector, version 0.8.2
Copyright (c) 2004 Oleg Berngardt. All rights reserved.
Copyright (c) 2004 Alexander Djourik. All rights reserved.
FILE: 12 - Signing Off.flac
Size: 5883624 Hash: 22DAEBA5A1C65A9075AB667D22B59806 Accuracy: -m0
Conclusion: CDDA 100%
Signature: 8D9E542A7129EEF8CE37279E3E336AA8109499F5
FILE: 11 - Well You Needn't.flac
Size: 25468298 Hash: 2B2DACB50F63FBBAAF07F5FBDCAB3FFC Accuracy: -m0
Conclusion: CDDA 100%
Signature: 56DC6A7B2627E41DA7DDCAED21EC966E00A94403
FILE: 10 - Body And Soul.flac
Size: 29080898 Hash: 651428C6A2A5F4C97802FB774AEBE3B3 Accuracy: -m0
Conclusion: CDDA 100%
Signature: 3710F6A2AF44786B826634111E254045FDDBE4E6
FILE: 09 - Formerly.flac
Size: 19316732 Hash: 3A3028259B3AFDB38159576FBC186F02 Accuracy: -m0
Conclusion: CDDA 100%
Signature: 35B0DE609FCCFC266BF3B608C55AB7288C70D2A5
FILE: 08 - I'm Getting Sentimental Over You.flac
Size: 26938398 Hash: D9C23112BE7943F4A349B27C0D589DFB Accuracy: -m0
Conclusion: CDDA 100%
Signature: 9072E05345F6741A0AC40E2E52F5990B5A268C7D
FILE: 07 - Round Midnight.flac
Size: 30726987 Hash: AB8A4AA6F2FBA0962FDF842B8D7DAEBE Accuracy: -m0
Conclusion: CDDA 100%
Signature: E7E8D1FB7AD51A903DF483DD65B06F0FBE1A0584
FILE: 06 - Now Two.flac
Size: 14415738 Hash: F6B68B04866556411286E9AB06D37322 Accuracy: -m0
Conclusion: CDDA 100%
Signature: AFCAEF0D1AD5532488C4A20F733DA55A34EF6706
FILE: 05 - Ruby, My Dear.flac
Size: 20338782 Hash: BD572B9F410528CF148101BC8A57137F Accuracy: -m0
Conclusion: CDDA 100%
Signature: CF586916A7C4E0B3D2358C7FF39873D443C9D31B
FILE: 04 - Now One.flac
Size: 14490901 Hash: 8E1CD0A0CF82653641275442E04A215A Accuracy: -m0
Conclusion: CDDA 100%
Signature: 442F58217A9FADF69FDB6F9D997082B7AB1B19A1
FILE: 03 - Darn That Dream.flac
Size: 22618391 Hash: 6044D0E252BED94CC047986093A44F33 Accuracy: -m0
Conclusion: CDDA 100%
Signature: D7011673314B7894221344FA220A850C43374DBC
FILE: 02 - Ba-Lue Bolivar Ba-Lues Are.flac
Size: 17625358 Hash: B37B20B5D709BBD1AA21521EE73927D8 Accuracy: -m0
Conclusion: CDDA 100%
Signature: 1B78A6BD02683834225A79A9C388163A888EFEAB
FILE: 01 - Monk's Mood.flac
Size: 21650614 Hash: 657EEFAF94B4420B9E3D9091E13340EF Accuracy: -m0
Conclusion: CDDA 100%
Signature: EDEBC56ED67C1178A07CB5AE4CEB9F71292B42CE
Any questions -> support@pro-jazz.com. По всем вопросам пишите -> support@pro-jazz.com
19:49
187
Нет комментариев. Ваш будет первым!