Вы используете незарегистрированную версию компонента "Вкладки"!

Поиск

(Free Funk, Post-Bop, Label Bleu) Steve Coleman and Five Elements - Lucidarium - 2004, FLAC (tracks+.cue), lossless

(Free Funk, Post-Bop, Label Bleu) Steve Coleman and Five Elements - Lucidarium - 2004, FLAC (tracks+.cue), lossless
Треклист:
Steve Coleman and Five Elements / Lucidarium
Жанр: Free Funk, Post-Bop, Label Bleu
Страна-производитель диска: France
Год издания: 2004
Издатель (лейбл): Label Bleu
Номер по каталогу: LBLC 6673
Аудиокодек: FLAC (*.flac)
Тип рипа: tracks+.cue
Битрейт аудио: lossless
Продолжительность: 1:12:39
Источник (релизер): я
Наличие сканов в содержимом раздачи: нет
Треклист:
1. Ten Steppin’ (Door to the Sixty) (7:58)
2. Lucidarium (Beyond Doors) (7:11)
3. Plagal Transitions (6:26)
4. Mediations on Cardinal 137 (9:30)
5. Kabbalah (Bunky Green / Steve Coleman) (10:43)
6. Beyond All We Know (12:40)
7. Diasporatic Transitions I (1:43)
8. Diasporatic Transitions II (1:42)
9. Egypt to Crypts in Hieroglyphs (8:01)
10.Perspicuity (Doug Hammond) (6:45)
All songs composed and arranged by Steve Coleman except where indicated.
Steve Coleman – Alto Saxophone
Ravi Coltrane – Tenor Saxophone
Jonathan Finlayson – Trumpet
Ralph Alessi – Trumpet
Grégoire Maret – Harmonica
Dana Leong – Trombone
Mat Maneri – Viola
Craig Taborn – Keyboards
Anthony Tidd – Bass
Drew Gress – Acoustic Bass
Dafnis Prieto – Drums
Ramón García Pérez – Percussion
Jen Shyu – Vocal
Kyoko Kitamura – Vocal
Judith Berkson – Vocal
Theo Bleckmann – Vocal
Kokayi – Vocal
Lorin Benedict – Vocal
Yosvany Terry – Shekeré
 
Лог создания рипа
Exact Audio Copy V1.0 beta 3 from 29. August 2011
EAC extraction logfile from 13. October 2013, 17:17
Steve Coleman and Five Elements / Lucidarium
Used drive : SlimtypeeNAU508 5 Adapter: 1 ID: 0
Read mode : Secure
Utilize accurate stream : Yes
Defeat audio cache : Yes
Make use of C2 pointers : No
Read offset correction : 6
Overread into Lead-In and Lead-Out : No
Fill up missing offset samples with silence : Yes
Delete leading and trailing silent blocks : No
Null samples used in CRC calculations : Yes
Used interface : Native Win32 interface for Win NT & 2000
Gap handling : Appended to previous track
Used output format : User Defined Encoder
Selected bitrate : 768 kBit/s
Quality : High
Add ID3 tag : No
Command line compressor : C:\Program Files (x86)\Exact Audio Copy\Flac\flac.exe
Additional command line options : -8 -V -T "ARTIST=%artist%" -T "TITLE=%title%" -T "ALBUM=%albumtitle%" -T "DATE=%year%" -T "TRACKNUMBER=%tracknr%" -T "GENRE=%genre%" -T "PERFORMER=%albuminterpret%" -T "COMPOSER=%composer%" %haslyrics%--tag-from-file=LYRICS="%lyricsfile%"%haslyrics% -T "ALBUMARTIST=%albumartist%" -T "DISCNUMBER=%cdnumber%" -T "TOTALDISCS=%totalcds%" -T "TOTALTRACKS=%numtracks%" -T "COMMENT=%comment%" %source% -o %dest%
TOC of the extracted CD
Track | Start | Length | Start sector | End sector
---------------------------------------------------------
1 | 0:00.00 | 7:57.59 | 0 | 35833
2 | 7:57.59 | 7:11.28 | 35834 | 68186
3 | 15:09.12 | 6:26.17 | 68187 | 97153
4 | 21:35.29 | 9:29.49 | 97154 | 139877
5 | 31:05.03 | 10:42.45 | 139878 | 188072
6 | 41:47.48 | 12:40.34 | 188073 | 245106
7 | 54:28.07 | 1:42.40 | 245107 | 252796
8 | 56:10.47 | 1:41.64 | 252797 | 260435
9 | 57:52.36 | 8:00.70 | 260436 | 296505
10 | 65:53.31 | 6:45.23 | 296506 | 326903
Track 1
Filename C:\EAC rips\01 - Ten Steppin' (Door to the Sixty).wav
Pre-gap length 0:00:02.00
Peak level 100.0 %
Extraction speed 2.5 X
Track quality 100.0 %
Test CRC B05F9756
Copy CRC B05F9756
Accurately ripped (confidence 8) [356948DF] (AR v2)
Copy OK
Track 2
Filename C:\EAC rips\02 - Lucidarium (Beyond Doors).wav
Pre-gap length 0:00:00.05
Peak level 100.0 %
Extraction speed 2.9 X
Track quality 100.0 %
Test CRC B5D4705B
Copy CRC B5D4705B
Accurately ripped (confidence 8) [E0CF771A] (AR v2)
Copy OK
Track 3
Filename C:\EAC rips\03 - Plagal Transitions.wav
Pre-gap length 0:00:03.14
Peak level 100.0 %
Extraction speed 3.1 X
Track quality 100.0 %
Test CRC 14198412
Copy CRC 14198412
Accurately ripped (confidence 8) [590DE02E] (AR v2)
Copy OK
Track 4
Filename C:\EAC rips\04 - Meditations on Cardinal 137.wav
Peak level 100.0 %
Extraction speed 3.5 X
Track quality 100.0 %
Test CRC EA7B91B7
Copy CRC EA7B91B7
Accurately ripped (confidence 8) [C34C0536] (AR v2)
Copy OK
Track 5
Filename C:\EAC rips\05 - Kabbalah.wav
Peak level 100.0 %
Extraction speed 4.0 X
Track quality 100.0 %
Test CRC A18CC26E
Copy CRC A18CC26E
Accurately ripped (confidence 8) [308BCCDD] (AR v2)
Copy OK
Track 6
Filename C:\EAC rips\06 - Beyond All We Know.wav
Peak level 100.0 %
Extraction speed 4.4 X
Track quality 100.0 %
Test CRC 459AD4CE
Copy CRC 459AD4CE
Accurately ripped (confidence 8) [07CE36AF] (AR v2)
Copy OK
Track 7
Filename C:\EAC rips\07 - Diasporatic Transitions I.wav
Peak level 94.5 %
Extraction speed 3.5 X
Track quality 100.0 %
Test CRC 8422DE55
Copy CRC 8422DE55
Accurately ripped (confidence 8) [9D06AF32] (AR v2)
Copy OK
Track 8
Filename C:\EAC rips\08 - Diasporatic Transitions II.wav
Peak level 94.5 %
Extraction speed 3.6 X
Track quality 100.0 %
Test CRC AE68BD2E
Copy CRC AE68BD2E
Accurately ripped (confidence 8) [32011E73] (AR v2)
Copy OK
Track 9
Filename C:\EAC rips\09 - Egypt to Crypts in Hieroglyphs.wav
Peak level 100.0 %
Extraction speed 4.6 X
Track quality 100.0 %
Test CRC D0947CC2
Copy CRC D0947CC2
Accurately ripped (confidence 8) [46B3B538] (AR v2)
Copy OK
Track 10
Filename C:\EAC rips\10 - Perspicuity.wav
Peak level 100.0 %
Extraction speed 4.8 X
Track quality 100.0 %
Test CRC 00D027AD
Copy CRC 00D027AD
Accurately ripped (confidence 8) [AC15070A] (AR v2)
Copy OK
All tracks accurately ripped
No errors occurred
End of status report
---- CUETools DB Plugin V2.1.4
[CTDB TOCID: HihyBCLxy.Mk4PcUGAorXXTxXDY-] found
Submit result: HihyBCLxy.Mk4PcUGAorXXTxXDY- has been confirmed
Track | CTDB Status
1 | (6/6) Accurately ripped
2 | (6/6) Accurately ripped
3 | (6/6) Accurately ripped
4 | (6/6) Accurately ripped
5 | (6/6) Accurately ripped
6 | (6/6) Accurately ripped
7 | (6/6) Accurately ripped
8 | (6/6) Accurately ripped
9 | (6/6) Accurately ripped
10 | (6/6) Accurately ripped
==== Log checksum 9321C525E03A9D29DA8F8117E24CCDF9136331540C30552AD289DF84F0AD8096 ====
 
Содержание индексной карты (.CUE)
REM GENRE Jazz
REM DATE 2004
REM DISCID 9D11060A
REM COMMENT "ExactAudioCopy v1.0b3"
PERFORMER "Steve Coleman and Five Elements"
TITLE "Lucidarium"
FILE "01 - Ten Steppin' (Door to the Sixty).wav" WAVE
TRACK 01 AUDIO
TITLE "Ten Steppin' (Door to the Sixty)"
PERFORMER "Steve Coleman and Five Elements"
INDEX 01 00:00:00
TRACK 02 AUDIO
TITLE "Lucidarium (Beyond Doors)"
PERFORMER "Steve Coleman and Five Elements"
INDEX 00 07:57:54
FILE "02 - Lucidarium (Beyond Doors).wav" WAVE
INDEX 01 00:00:00
TRACK 03 AUDIO
TITLE "Plagal Transitions"
PERFORMER "Steve Coleman and Five Elements"
INDEX 00 07:08:14
FILE "03 - Plagal Transitions.wav" WAVE
INDEX 01 00:00:00
FILE "04 - Meditations on Cardinal 137.wav" WAVE
TRACK 04 AUDIO
TITLE "Meditations on Cardinal 137"
PERFORMER "Steve Coleman and Five Elements"
INDEX 01 00:00:00
FILE "05 - Kabbalah.wav" WAVE
TRACK 05 AUDIO
TITLE "Kabbalah"
PERFORMER "Steve Coleman and Five Elements"
INDEX 01 00:00:00
FILE "06 - Beyond All We Know.wav" WAVE
TRACK 06 AUDIO
TITLE "Beyond All We Know"
PERFORMER "Steve Coleman and Five Elements"
INDEX 01 00:00:00
FILE "07 - Diasporatic Transitions I.wav" WAVE
TRACK 07 AUDIO
TITLE "Diasporatic Transitions I"
PERFORMER "Steve Coleman and Five Elements"
INDEX 01 00:00:00
FILE "08 - Diasporatic Transitions II.wav" WAVE
TRACK 08 AUDIO
TITLE "Diasporatic Transitions II"
PERFORMER "Steve Coleman and Five Elements"
INDEX 01 00:00:00
FILE "09 - Egypt to Crypts in Hieroglyphs.wav" WAVE
TRACK 09 AUDIO
TITLE "Egypt to Crypts in Hieroglyphs"
PERFORMER "Steve Coleman and Five Elements"
INDEX 01 00:00:00
FILE "10 - Perspicuity.wav" WAVE
TRACK 10 AUDIO
TITLE "Perspicuity"
PERFORMER "Steve Coleman and Five Elements"
INDEX 01 00:00:00
Any questions -> support@pro-jazz.com. По всем вопросам пишите -> support@pro-jazz.com
19:48
140
Нет комментариев. Ваш будет первым!