Вы используете незарегистрированную версию компонента "Вкладки"!

Поиск

(Free Improvisation) Lisa Mezzacappa & Nightshade - Cosmic Rift - 2011, FLAC (image+.cue), lossless

Треклист:
Lisa Mezzacappa & Nightshade / Cosmic Rift
Жанр: Free Improvisation
Страна-производитель диска: UK
Год издания: 2011
Издатель (лейбл): Leo Records
Номер по каталогу: CD LR 613
Аудиокодек: FLAC (*.flac)
Тип рипа: image+.cue
Битрейт аудио: lossless
Продолжительность: 46:36
Источник (релизер): cd
Наличие сканов в содержимом раздачи: нет
Треклист:
1 Cosmic Rift (prelude)
2 Delphinus
3 The Eric Dolphy Memorial Barbeque
4 Regard De L'etoile
5 Ballet
6 Alvamel's Dream
7 Cosmic Rift
 
Лог создания рипа
Exact Audio Copy V1.0 beta 2 from 29. April 2011
EAC extraction logfile from 1. November 2013, 11:10
Lisa Mezzacappa & Nightshade / Cosmic Rift
Used drive : Optiarc DVD RW AD-7170A Adapter: 0 ID: 0
Read mode : Secure
Utilize accurate stream : Yes
Defeat audio cache : Yes
Make use of C2 pointers : No
Read offset correction : 48
Overread into Lead-In and Lead-Out : No
Fill up missing offset samples with silence : Yes
Delete leading and trailing silent blocks : No
Null samples used in CRC calculations : Yes
Used interface : Native Win32 interface for Win NT & 2000
Used output format : User Defined Encoder
Selected bitrate : 320 kBit/s
Quality : High
Add ID3 tag : No
Command line compressor : C:\Program Files\Exact Audio Copy\Flac\flac.exe
Additional command line options : -V -8 -T "Date=%year%" -T "Genre=%genre%" %source%
TOC of the extracted CD
Track | Start | Length | Start sector | End sector
---------------------------------------------------------
1 | 0:00.00 | 1:51.44 | 0 | 8368
2 | 1:51.44 | 7:28.26 | 8369 | 41994
3 | 9:19.70 | 5:35.47 | 41995 | 67166
4 | 14:55.42 | 8:31.60 | 67167 | 105551
5 | 23:27.27 | 6:36.67 | 105552 | 135318
6 | 30:04.19 | 10:35.70 | 135319 | 183013
7 | 40:40.14 | 5:56.37 | 183014 | 209750
Range status and errors
Selected range
Filename K:\ЕАС\Lisa Mezzacappa & Nightshade - Cosmic Rift.wav
Peak level 98.8 %
Extraction speed 1.9 X
Range quality 100.0 %
Test CRC 015788CF
Copy CRC 015788CF
Copy OK
No errors occurred
AccurateRip summary
Track 1 not present in database
Track 2 not present in database
Track 3 not present in database
Track 4 not present in database
Track 5 not present in database
Track 6 not present in database
Track 7 not present in database
None of the tracks are present in the AccurateRip database
End of status report
==== Log checksum DEE06B2BB3528B3D2C44985EBA8B678A4D89B5715AFCD83082DE372A0AD30AD4 ====
 
Содержание индексной карты (.CUE)
REM GENRE Jazz
REM DATE 2011
REM DISCID 540AEC07
REM COMMENT "ExactAudioCopy v1.0b2"
PERFORMER "Lisa Mezzacappa & Nightshade"
TITLE "Cosmic Rift"
FILE "Lisa Mezzacappa & Nightshade - Cosmic Rift.flac" WAVE
TRACK 01 AUDIO
TITLE "Cosmic Rift (prelude)"
PERFORMER "Lisa Mezzacappa & Nightshade"
ISRC GBJZD0110152
FLAGS DCP
INDEX 01 00:00:00
TRACK 02 AUDIO
TITLE "Delphinus"
PERFORMER "Lisa Mezzacappa & Nightshade"
ISRC GBJZD0110153
FLAGS DCP
INDEX 00 01:50:44
INDEX 01 01:51:44
TRACK 03 AUDIO
TITLE "The Eric Dolphy Memorial BBQ"
PERFORMER "Lisa Mezzacappa & Nightshade"
ISRC GBJZD0110154
FLAGS DCP
INDEX 00 09:17:70
INDEX 01 09:19:70
TRACK 04 AUDIO
TITLE "Regard de L'etoile "
PERFORMER "Lisa Mezzacappa & Nightshade"
ISRC GBJZD0110155
FLAGS DCP
INDEX 00 14:53:42
INDEX 01 14:55:42
TRACK 05 AUDIO
TITLE "Ballet"
PERFORMER "Lisa Mezzacappa & Nightshade"
ISRC GBJZD0110156
FLAGS DCP
INDEX 00 23:24:27
INDEX 01 23:27:27
TRACK 06 AUDIO
TITLE "Alvamel's Dream"
PERFORMER "Lisa Mezzacappa & Nightshade"
ISRC GBJZD0110157
FLAGS DCP
INDEX 00 30:01:19
INDEX 01 30:04:19
TRACK 07 AUDIO
TITLE "Cosmic Rift"
PERFORMER "Lisa Mezzacappa & Nightshade"
ISRC GBJZD0110158
FLAGS DCP
INDEX 00 40:36:14
INDEX 01 40:40:14
 
Состав
Acoustic Bass – Lisa Mezzacappa
Bass Clarinet, Clarinet [Bb] – Cory Wright
Electric Guitar – John Finkbeiner
Electronics – Tim Perkis
Vibraphone, Percussion – Kjell Nordeson
По всем вопросам пишите личное сообщение пользователю M0p94ok.
19:47
147
Нет комментариев. Ваш будет первым!