Вы используете незарегистрированную версию компонента "Вкладки"!

Поиск

(Free jazz, Post bop) Stanley Cowell - Brilliant Circles - 1995, FLAC (tracks+.cue), lossless

(Free jazz, Post bop) Stanley Cowell - Brilliant Circles - 1995, FLAC (tracks+.cue), lossless
Треклист:
Stanley Cowell - Brilliant Circles
Жанр: Free jazz, Post bop
Страна-производитель диска: Great Britain
Год издания: 1995
Издатель (лейбл): Black Lion
Номер по каталогу: BLCD 760204
Аудиокодек: FLAC (*.flac)
Тип рипа: tracks+.cue
Битрейт аудио: lossless
Источник (релизер): собственный рип с оригинального диска.
Наличие сканов в содержимом раздачи: да
Треклист:
01. Brilliant Circles (Take 3) 15:33
02. Earthly Heavens 7:45
03. Musical Prayers 10:12
04. Boo Ann's Grand 9:07
05. Bobby's Tune 10:42
06. Brilliant Circles (Take 2) 15:45
 
Лог создания рипа
Exact Audio Copy V1.0 beta 3 from 29. August 2011
EAC extraction logfile from 30. August 2013, 22:38
Stanley Cowell / Brilliant Circles
Used drive : TSSTcorpCDDVDW SH-S222A Adapter: 1 ID: 0
Read mode : Secure
Utilize accurate stream : Yes
Defeat audio cache : Yes
Make use of C2 pointers : No
Read offset correction : 6
Overread into Lead-In and Lead-Out : No
Fill up missing offset samples with silence : Yes
Delete leading and trailing silent blocks : No
Null samples used in CRC calculations : Yes
Used interface : Native Win32 interface for Win NT & 2000
Gap handling : Appended to previous track
Used output format : User Defined Encoder
Selected bitrate : 896 kBit/s
Quality : High
Add ID3 tag : No
Command line compressor : C:\Tool\CD\EAC10\FLAC\FLAC.EXE
Additional command line options : -8 -V -T "ARTIST=%artist%" -T "TITLE=%title%" -T "ALBUM=%albumtitle%" -T "DATE=%year%" -T "TRACKNUMBER=%tracknr%" -T "GENRE=%genre%" -T "PERFORMER=%albuminterpret%" -T "ALBUMARTIST=%albumartist%" -T "ALBUM ARTIST=%albumartist%" -T "DISCNUMBER=%cdnumber%" -T "TOTALDISCS=%totalcds%" -T "TOTALTRACKS=%numtracks%" -T "COMMENT=EAC V1.0 beta 3, Secure Mode, Test & Copy, AccurateRip, FLAC -8" %source% -o %dest%
TOC of the extracted CD
Track | Start | Length | Start sector | End sector
---------------------------------------------------------
1 | 0:00.30 | 15:46.43 | 30 | 71022
2 | 15:46.73 | 6:53.23 | 71023 | 102020
3 | 22:40.21 | 10:25.60 | 102021 | 148955
4 | 33:06.06 | 9:21.26 | 148956 | 191056
5 | 42:27.32 | 11:05.29 | 191057 | 240960
6 | 53:32.61 | 15:46.29 | 240961 | 311939
Track 1
Filename C:\! UPLOAD\Stanley Cowell - Brilliant Circles (1995) [FLAC] {Black Lion}\01 - Brilliant Circles (take 3).wav
Pre-gap length 0:00:02.30
Peak level 85.3 %
Extraction speed 5.8 X
Track quality 100.0 %
Test CRC 35930F5B
Copy CRC 35930F5B
Accurately ripped (confidence 2) [60AA4C0D] (AR v1)
Copy OK
Track 2
Filename C:\! UPLOAD\Stanley Cowell - Brilliant Circles (1995) [FLAC] {Black Lion}\02 - Earthly Heavens.wav
Peak level 78.7 %
Extraction speed 5.8 X
Track quality 99.9 %
Test CRC CF95D910
Copy CRC CF95D910
Accurately ripped (confidence 2) [F7CA01F0] (AR v1)
Copy OK
Track 3
Filename C:\! UPLOAD\Stanley Cowell - Brilliant Circles (1995) [FLAC] {Black Lion}\03 - Musical Players.wav
Peak level 99.9 %
Extraction speed 6.9 X
Track quality 99.9 %
Test CRC 0001FC5D
Copy CRC 0001FC5D
Accurately ripped (confidence 2) [C619BCA7] (AR v1)
Copy OK
Track 4
Filename C:\! UPLOAD\Stanley Cowell - Brilliant Circles (1995) [FLAC] {Black Lion}\04 - Boo Ann's Grand.wav
Peak level 96.7 %
Extraction speed 8.2 X
Track quality 100.0 %
Test CRC B41C18D5
Copy CRC B41C18D5
Accurately ripped (confidence 2) [A761F15D] (AR v1)
Copy OK
Track 5
Filename C:\! UPLOAD\Stanley Cowell - Brilliant Circles (1995) [FLAC] {Black Lion}\05 - Bobby's Tune.wav
Peak level 92.0 %
Extraction speed 9.0 X
Track quality 100.0 %
Test CRC 81AE5789
Copy CRC 81AE5789
Accurately ripped (confidence 2) [C8D56DF6] (AR v1)
Copy OK
Track 6
Filename C:\! UPLOAD\Stanley Cowell - Brilliant Circles (1995) [FLAC] {Black Lion}\06 - Brilliant Circles (take 2).wav
Peak level 100.0 %
Extraction speed 10.0 X
Track quality 100.0 %
Test CRC F2A7E1F5
Copy CRC F2A7E1F5
Accurately ripped (confidence 2) [48A818E5] (AR v1)
Copy OK
All tracks accurately ripped
No errors occurred
End of status report
==== Log checksum 695130D0E6BE3A2412C06DDC19FD6BC087F5A50C16A708DC4B2B116FAAA927C0 ====
 
Содержание индексной карты (.CUE)
REM GENRE Jazz
REM DATE 1995
REM DISCID 5B103F06
REM COMMENT "ExactAudioCopy v1.0b3"
CATALOG 0000000000000
PERFORMER "Stanley Cowell"
TITLE "Brilliant Circles"
FILE "01 - Brilliant Circles (take 3).wav" WAVE
TRACK 01 AUDIO
TITLE "Brilliant Circles (take 3)"
PERFORMER "Stanley Cowell"
PREGAP 00:00:30
INDEX 01 00:00:00
FILE "02 - Earthly Heavens.wav" WAVE
TRACK 02 AUDIO
TITLE "Earthly Heavens"
PERFORMER "Stanley Cowell"
INDEX 01 00:00:00
FILE "03 - Musical Players.wav" WAVE
TRACK 03 AUDIO
TITLE "Musical Players"
PERFORMER "Stanley Cowell"
INDEX 01 00:00:00
FILE "04 - Boo Ann's Grand.wav" WAVE
TRACK 04 AUDIO
TITLE "Boo Ann's Grand"
PERFORMER "Stanley Cowell"
INDEX 01 00:00:00
FILE "05 - Bobby's Tune.wav" WAVE
TRACK 05 AUDIO
TITLE "Bobby's Tune"
PERFORMER "Stanley Cowell"
INDEX 01 00:00:00
FILE "06 - Brilliant Circles (take 2).wav" WAVE
TRACK 06 AUDIO
TITLE "Brilliant Circles (take 2)"
PERFORMER "Stanley Cowell"
INDEX 01 00:00:00
Доп. информация: Recorded at Olmsted Sound Studios, New York City, September 25, 1969
Tracks 3 & 6 previously unissued
 
Об альбоме (Scott Yanow )
The challenging repertoire (an original apiece by Cowell, Washington, Shaw and Hutcherson) falls between advanced hard bop and the avant-garde, consistently inspiring the talented players to play at their most creative. Recommended.
 
Об альбоме (Charles Farrell)
The group takes tunes at impossible tempos, abandons the conventional ensemble signposts used by less surefooted players of the day, and effortlessly combines intellect with passion. Most importantly, for all their youthful aggression, everyone in this group plays beautifully.
 
Состав
Stanley Cowell - piano
Woody Shaw - trumpet, maracas
Tyrone Washington - tenor saxophone, flute, clarinet, maracas, tambourine
Bobby Hutcherson - vibraphone
Reggie Workman - bass
Joe Chambers - drums
По всем вопросам пишите личное сообщение пользователю M0p94ok.
19:47
137
Нет комментариев. Ваш будет первым!