Вы используете незарегистрированную версию компонента "Вкладки"!

Поиск

(Avant-Garde, Plainisphare) Archie Shepp / Horace Parlan - Swing Low: Live in Zurich - 1992, FLAC (tracks+.cue), lossless

(Avant-Garde, Plainisphare) Archie Shepp / Horace Parlan - Swing Low: Live in Zurich - 1992, FLAC (tracks+.cue), lossless
Треклист:
Archie Shepp / Horace Parlan – Swing Low: Live in Zurich
Жанр: Avant-Garde, Plainisphare
Страна-производитель диска: Switzerland
Год издания: 1992
Издатель (лейбл): Plainisphare
Номер по каталогу: PL 1267-73 CD
Аудиокодек: FLAC (*.flac)
Тип рипа: tracks+.cue
Битрейт аудио: lossless
Продолжительность: 1:02:33
Источник (релизер): я
Наличие сканов в содержимом раздачи: нет
Треклист:
1. Swing Low, Sweet Chariot (trad., arr. by A. Shepp / H. Parlan) 6:40
2. See See Rider (C. Willis) 7:53
3. Embraceable You (George and Ira Gershwin) 6:51
4. Go Down Moses (trad., arr. by A. Shepp / H. Parlan) 10:50
5. Make Me a Pallet on the Floor (W. C. Handy) 5:45
6. I Didn’t Know About You (Duke Ellington / Bob Russell) 8:35
7. Dedication to Bessie Smith’s Blues (A. Shepp) 9:45
8. Billie’s Bossa (H. Parlan) 6:14
Recorded live at the Bellerive Hotel in Zurich on September 27/28, 1991.
Archie Shepp – Tenor Sax (1, 2, 4, 6, 7, 8), Alto Sax (3, 5), Vocal (2, 4, 7)
Horace Parlan – Piano
« The additional instrument at the beginning of « Go Down Moses » is an unattended snare drum responding to the sound of the saxophone. We sort of liked it and decided to leave it in. »
 
Лог создания рипа
Exact Audio Copy V1.0 beta 3 from 29. August 2011
EAC extraction logfile from 9. October 2013, 18:19
Archie Shepp / Horace Parlan / Swing Low - Live in Zurich
Used drive : SlimtypeeNAU508 5 Adapter: 1 ID: 0
Read mode : Secure
Utilize accurate stream : Yes
Defeat audio cache : Yes
Make use of C2 pointers : No
Read offset correction : 6
Overread into Lead-In and Lead-Out : No
Fill up missing offset samples with silence : Yes
Delete leading and trailing silent blocks : No
Null samples used in CRC calculations : Yes
Used interface : Native Win32 interface for Win NT & 2000
Gap handling : Appended to previous track
Used output format : User Defined Encoder
Selected bitrate : 768 kBit/s
Quality : High
Add ID3 tag : No
Command line compressor : C:\Program Files (x86)\Exact Audio Copy\Flac\flac.exe
Additional command line options : -8 -V -T "ARTIST=%artist%" -T "TITLE=%title%" -T "ALBUM=%albumtitle%" -T "DATE=%year%" -T "TRACKNUMBER=%tracknr%" -T "GENRE=%genre%" -T "PERFORMER=%albuminterpret%" -T "COMPOSER=%composer%" %haslyrics%--tag-from-file=LYRICS="%lyricsfile%"%haslyrics% -T "ALBUMARTIST=%albumartist%" -T "DISCNUMBER=%cdnumber%" -T "TOTALDISCS=%totalcds%" -T "TOTALTRACKS=%numtracks%" -T "COMMENT=%comment%" %source% -o %dest%
TOC of the extracted CD
Track | Start | Length | Start sector | End sector
---------------------------------------------------------
1 | 0:00.00 | 6:39.62 | 0 | 29986
2 | 6:39.62 | 7:53.00 | 29987 | 65461
3 | 14:32.62 | 6:50.50 | 65462 | 96261
4 | 21:23.37 | 10:50.25 | 96262 | 145036
5 | 32:13.62 | 5:45.00 | 145037 | 170911
6 | 37:58.62 | 8:35.00 | 170912 | 209536
7 | 46:33.62 | 9:45.00 | 209537 | 253411
8 | 56:18.62 | 6:14.13 | 253412 | 281474
Track 1
Filename C:\EAC rips\01 - Swing Low, Sweet Chariot.wav
Pre-gap length 0:00:02.00
Peak level 84.2 %
Extraction speed 1.9 X
Track quality 100.0 %
Test CRC 25E2D21F
Copy CRC 25E2D21F
Accurately ripped (confidence 2) [B429D728] (AR v1)
Copy OK
Track 2
Filename C:\EAC rips\02 - See See Rider.wav
Peak level 90.9 %
Extraction speed 2.3 X
Track quality 100.0 %
Test CRC 64595D12
Copy CRC 64595D12
Accurately ripped (confidence 2) [011165F3] (AR v1)
Copy OK
Track 3
Filename C:\EAC rips\03 - Embraceable You.wav
Peak level 90.8 %
Extraction speed 2.2 X
Track quality 99.9 %
Test CRC F0B1E8CC
Copy CRC F0B1E8CC
Accurately ripped (confidence 2) [8BBCC114] (AR v1)
Copy OK
Track 4
Filename C:\EAC rips\04 - Go Down Moses.wav
Peak level 90.7 %
Extraction speed 3.0 X
Track quality 100.0 %
Test CRC B6A20739
Copy CRC B6A20739
Accurately ripped (confidence 2) [8E59BC8B] (AR v1)
Copy OK
Track 5
Filename C:\EAC rips\05 - Make Me a Pallet on the Floor.wav
Peak level 90.9 %
Extraction speed 3.1 X
Track quality 100.0 %
Test CRC D7916E4D
Copy CRC D7916E4D
Accurately ripped (confidence 2) [A2DB7127] (AR v1)
Copy OK
Track 6
Filename C:\EAC rips\06 - I Didn't Know About You.wav
Peak level 77.6 %
Extraction speed 3.3 X
Track quality 100.0 %
Test CRC 8FE31936
Copy CRC 8FE31936
Accurately ripped (confidence 2) [1160CFC7] (AR v1)
Copy OK
Track 7
Filename C:\EAC rips\07 - Dedication to Bessie Smith's Blues.wav
Peak level 90.8 %
Extraction speed 3.0 X
Track quality 99.9 %
Test CRC 456A4E41
Copy CRC 456A4E41
Accurately ripped (confidence 2) [23EB017B] (AR v1)
Copy OK
Track 8
Filename C:\EAC rips\08 - Billie's Bossa.wav
Peak level 90.6 %
Extraction speed 3.1 X
Track quality 99.9 %
Test CRC 40F1DB1F
Copy CRC 40F1DB1F
Accurately ripped (confidence 2) [6D007FA3] (AR v1)
Copy OK
All tracks accurately ripped
No errors occurred
End of status report
---- CUETools DB Plugin V2.1.4
[CTDB TOCID: ZyeuAgMmG3OmsGQRJh8778mTFik-] disk not present in database
Submit result: ZyeuAgMmG3OmsGQRJh8778mTFik- has been uploaded
==== Log checksum ED1ADCE98CE47D89FA25E3BB19307305EFE15B8A8EEE74FED824FBCBE6D3BB41 ====
 
Содержание индексной карты (.CUE)
REM GENRE Jazz
REM DATE 1992
REM DISCID 6D0EA908
REM COMMENT "ExactAudioCopy v1.0b3"
PERFORMER "Archie Shepp / Horace Parlan"
TITLE "Swing Low - Live in Zurich"
FILE "01 - Swing Low, Sweet Chariot.wav" WAVE
TRACK 01 AUDIO
TITLE "Swing Low, Sweet Chariot"
PERFORMER "Archie Shepp / Horace Parlan"
INDEX 01 00:00:00
FILE "02 - See See Rider.wav" WAVE
TRACK 02 AUDIO
TITLE "See See Rider"
PERFORMER "Archie Shepp / Horace Parlan"
INDEX 01 00:00:00
FILE "03 - Embraceable You.wav" WAVE
TRACK 03 AUDIO
TITLE "Embraceable You"
PERFORMER "Archie Shepp / Horace Parlan"
INDEX 01 00:00:00
FILE "04 - Go Down Moses.wav" WAVE
TRACK 04 AUDIO
TITLE "Go Down Moses"
PERFORMER "Archie Shepp / Horace Parlan"
INDEX 01 00:00:00
FILE "05 - Make Me a Pallet on the Floor.wav" WAVE
TRACK 05 AUDIO
TITLE "Make Me a Pallet on the Floor"
PERFORMER "Archie Shepp / Horace Parlan"
INDEX 01 00:00:00
FILE "06 - I Didn't Know About You.wav" WAVE
TRACK 06 AUDIO
TITLE "I Didn't Know About You"
PERFORMER "Archie Shepp / Horace Parlan"
INDEX 01 00:00:00
FILE "07 - Dedication to Bessie Smith's Blues.wav" WAVE
TRACK 07 AUDIO
TITLE "Dedication to Bessie Smith's Blues"
PERFORMER "Archie Shepp / Horace Parlan"
INDEX 01 00:00:00
FILE "08 - Billie's Bossa.wav" WAVE
TRACK 08 AUDIO
TITLE "Billie's Bossa"
PERFORMER "Archie Shepp / Horace Parlan"
INDEX 01 00:00:00
Доп. информация: The picture doesn't represent the original Plainisphare edition (that I ripped) but the re-edition on the French label "Elephant" (2003).
По всем вопросам пишите личное сообщение пользователю M0p94ok.
19:52
277
Нет комментариев. Ваш будет первым!