Вы используете незарегистрированную версию компонента "Вкладки"!

Поиск

(Avant-Garde) David Moss - My Favorite Things - 1991, FLAC (tracks+.cue), lossless

(Avant-Garde) David Moss - My Favorite Things - 1991, FLAC (tracks+.cue), lossless
Треклист:
David Moss - My Favorite Things
Жанр: Avant-Garde
Страна-производитель диска: Швейцария
Год издания: 1991
Издатель (лейбл): Intakt Records
Номер по каталогу: Intakt CD 022/1991
Аудиокодек: FLAC (*.flac)
Тип рипа: tracks+.cue
Битрейт аудио: lossless
Продолжительность: 53:10
Источник (релизер): SurpriseTruck (what)
Наличие сканов в содержимом раздачи: нет
Треклист:
01. Dance On (Prince) - 3:22
02. Ghosts (Ayler) - 2:52
03. Keemanay (Moss) - 3:18
04. Stolen (Moss) - 5:43
05. For JB (Moss) - 2:36
06. Round Midnight (Monk) - 2:09
07. Chebbah (Khaled) - 3:36
08. Die Kunst der Fuge (J.S. Bach) - 3:17
09. In a Silent Way (Zawinul-Davis) - 2:38
10. Slow Talking (Moss) - 4:19
11. Delilah (Reed-Mason) - 2:58
12. The Girl from Ipanema (Jobim) - 2:44
13. My Favorite Things (Rodgers-Hammerstein) - 5:19
14. Poder de Criacao (Nogueira) - 3:32
15. About 3 Little Fishes (Moss) - 2:07
16. That Tempest (Moss) - 2:40
Состав:
David Moss - vocals, drums, guitar
Jean Chaine - bass-lines (#3,5,7,10,14), textures (#10)
All vocal sounds are made "live" by David Moss.
No drum machines, synthesizers or computers were used on this CD.
Recorded at Soundesign, Brattleboro, VT in July - August, 1990.
 
Лог создания рипа
Exact Audio Copy V1.0 beta 3 from 29. August 2011
EAC extraction logfile from 1. November 2013, 19:56
David Moss / My Favorite Things
Used drive : ATAPI iHAS124 C Adapter: 2 ID: 1
Read mode : Secure
Utilize accurate stream : Yes
Defeat audio cache : Yes
Make use of C2 pointers : No
Read offset correction : 6
Overread into Lead-In and Lead-Out : No
Fill up missing offset samples with silence : Yes
Delete leading and trailing silent blocks : No
Null samples used in CRC calculations : Yes
Used interface : Native Win32 interface for Win NT & 2000
Gap handling : Appended to previous track
Used output format : User Defined Encoder
Selected bitrate : 1024 kBit/s
Quality : High
Add ID3 tag : No
Command line compressor : C:\Program Files (x86)\FLAC\flac.exe
Additional command line options : -8 -V -T "ARTIST=%artist%" -T "TITLE=%title%" -T "ALBUM=%albumtitle%" -T "DATE=%year%" -T "TRACKNUMBER=%tracknr%" -T "GENRE=%genre%" -T "PERFORMER=%albuminterpret%" -T "COMPOSER=%composer%" %haslyrics%--tag-from-file=LYRICS="%lyricsfile%"%haslyrics% -T "ALBUMARTIST=%albumartist%" -T "DISCNUMBER=%cdnumber%" -T "TOTALDISCS=%totalcds%" -T "TOTALTRACKS=%numtracks%" -T "COMMENT=%comment%" %source% -o %dest%
TOC of the extracted CD
Track | Start | Length | Start sector | End sector
---------------------------------------------------------
1 | 0:00.00 | 3:21.62 | 0 | 15136
2 | 3:21.62 | 2:52.00 | 15137 | 28036
3 | 6:13.62 | 3:18.00 | 28037 | 42886
4 | 9:31.62 | 5:43.00 | 42887 | 68611
5 | 15:14.62 | 2:36.00 | 68612 | 80311
6 | 17:50.62 | 2:09.25 | 80312 | 90011
7 | 20:00.12 | 3:35.50 | 90012 | 106186
8 | 23:35.62 | 3:17.25 | 106187 | 120986
9 | 26:53.12 | 2:38.00 | 120987 | 132836
10 | 29:31.12 | 4:18.50 | 132837 | 152236
11 | 33:49.62 | 2:58.00 | 152237 | 165586
12 | 36:47.62 | 2:43.50 | 165587 | 177861
13 | 39:31.37 | 5:19.25 | 177862 | 201811
14 | 44:50.62 | 3:31.50 | 201812 | 217686
15 | 48:22.37 | 2:06.50 | 217687 | 227186
16 | 50:29.12 | 2:39.63 | 227187 | 239174
Track 1
Filename E:\FLAC\David Moss - 1991 - My Favorite Things [FLAC]\01 - Dance On.wav
Pre-gap length 0:00:02.00
Peak level 91.4 %
Extraction speed 1.3 X
Track quality 99.9 %
Test CRC DC23F595
Copy CRC DC23F595
Cannot be verified as accurate (confidence 3) [5DE940B8], AccurateRip returned [B5DDE2AE] (AR v2)
Copy OK
Track 2
Filename E:\FLAC\David Moss - 1991 - My Favorite Things [FLAC]\02 - Ghosts.wav
Pre-gap length 0:00:03.82
Peak level 34.2 %
Extraction speed 1.3 X
Track quality 99.9 %
Test CRC C8889649
Copy CRC C8889649
Cannot be verified as accurate (confidence 3) [96D7A1C6], AccurateRip returned [58950E43] (AR v2)
Copy OK
Track 3
Filename E:\FLAC\David Moss - 1991 - My Favorite Things [FLAC]\03 - Keemanay.wav
Pre-gap length 0:00:04.81
Peak level 80.0 %
Extraction speed 2.1 X
Track quality 100.0 %
Test CRC 5AF8DF53
Copy CRC 5AF8DF53
Cannot be verified as accurate (confidence 3) [D26A7937], AccurateRip returned [E43490E9] (AR v2)
Copy OK
Track 4
Filename E:\FLAC\David Moss - 1991 - My Favorite Things [FLAC]\04 - Stolen.wav
Pre-gap length 0:00:02.80
Peak level 42.7 %
Extraction speed 2.5 X
Track quality 100.0 %
Test CRC 6D80E053
Copy CRC 6D80E053
Cannot be verified as accurate (confidence 3) [0850D1CB], AccurateRip returned [186668E3] (AR v2)
Copy OK
Track 5
Filename E:\FLAC\David Moss - 1991 - My Favorite Things [FLAC]\05 - For JB.wav
Pre-gap length 0:00:04.82
Peak level 91.1 %
Extraction speed 1.6 X
Track quality 99.9 %
Test CRC F05FFB15
Copy CRC F05FFB15
Cannot be verified as accurate (confidence 3) [FE2765C5], AccurateRip returned [EF5737EE] (AR v2)
Copy OK
Track 6
Filename E:\FLAC\David Moss - 1991 - My Favorite Things [FLAC]\06 - Round Midnight.wav
Pre-gap length 0:00:02.76
Peak level 83.5 %
Extraction speed 2.4 X
Track quality 100.0 %
Test CRC 24315EB6
Copy CRC 24315EB6
Cannot be verified as accurate (confidence 3) [0F33A54C], AccurateRip returned [63F8E54B] (AR v2)
Copy OK
Track 7
Filename E:\FLAC\David Moss - 1991 - My Favorite Things [FLAC]\07 - Chebbah.wav
Pre-gap length 0:00:04.16
Peak level 72.8 %
Extraction speed 2.7 X
Track quality 100.0 %
Test CRC 5118E75C
Copy CRC 5118E75C
Cannot be verified as accurate (confidence 3) [447CEC30], AccurateRip returned [33DAC682] (AR v2)
Copy OK
Track 8
Filename E:\FLAC\David Moss - 1991 - My Favorite Things [FLAC]\08 - Die Kunst Der Fuge.wav
Pre-gap length 0:00:06.81
Peak level 68.6 %
Extraction speed 2.8 X
Track quality 100.0 %
Test CRC B4A28258
Copy CRC B4A28258
Cannot be verified as accurate (confidence 3) [C9FBD627], AccurateRip returned [9AA9D10F] (AR v2)
Copy OK
Track 9
Filename E:\FLAC\David Moss - 1991 - My Favorite Things [FLAC]\09 - In A Silent Way.wav
Pre-gap length 0:00:02.14
Peak level 42.4 %
Extraction speed 1.8 X
Track quality 99.9 %
Test CRC 019433EF
Copy CRC 019433EF
Cannot be verified as accurate (confidence 3) [4C2063CF], AccurateRip returned [C1D26E1B] (AR v2)
Copy OK
Track 10
Filename E:\FLAC\David Moss - 1991 - My Favorite Things [FLAC]\10 - Slow Talking.wav
Pre-gap length 0:00:02.13
Peak level 41.9 %
Extraction speed 3.1 X
Track quality 100.0 %
Test CRC F3228CAA
Copy CRC F3228CAA
Cannot be verified as accurate (confidence 3) [8CC4F510], AccurateRip returned [E9A8933F] (AR v2)
Copy OK
Track 11
Filename E:\FLAC\David Moss - 1991 - My Favorite Things [FLAC]\11 - Delilah.wav
Pre-gap length 0:00:07.73
Peak level 71.0 %
Extraction speed 3.1 X
Track quality 100.0 %
Test CRC 00D04F86
Copy CRC 00D04F86
Cannot be verified as accurate (confidence 3) [C29CC343], AccurateRip returned [FF892AD9] (AR v2)
Copy OK
Track 12
Filename E:\FLAC\David Moss - 1991 - My Favorite Things [FLAC]\12 - The Girl From Ipanema.wav
Pre-gap length 0:00:03.73
Peak level 52.5 %
Extraction speed 2.0 X
Track quality 99.9 %
Test CRC 9AA31C39
Copy CRC 9AA31C39
Cannot be verified as accurate (confidence 3) [A8A21058], AccurateRip returned [C46DD1C4] (AR v2)
Copy OK
Track 13
Filename E:\FLAC\David Moss - 1991 - My Favorite Things [FLAC]\13 - My Favorite Things.wav
Pre-gap length 0:00:04.46
Peak level 87.5 %
Extraction speed 2.8 X
Track quality 99.9 %
Test CRC DACE49F4
Copy CRC DACE49F4
Cannot be verified as accurate (confidence 3) [70CA0FF4], AccurateRip returned [3A7AB18B] (AR v2)
Copy OK
Track 14
Filename E:\FLAC\David Moss - 1991 - My Favorite Things [FLAC]\14 - Poder De Criacao.wav
Pre-gap length 0:00:04.82
Peak level 52.9 %
Extraction speed 3.5 X
Track quality 100.0 %
Test CRC EF6D60F8
Copy CRC EF6D60F8
Cannot be verified as accurate (confidence 3) [CFDD1C58], AccurateRip returned [E0B0DA5D] (AR v2)
Copy OK
Track 15
Filename E:\FLAC\David Moss - 1991 - My Favorite Things [FLAC]\15 - About 3 Little Fishes.wav
Pre-gap length 0:00:03.49
Peak level 71.1 %
Extraction speed 3.2 X
Track quality 100.0 %
Test CRC E65058A8
Copy CRC E65058A8
Cannot be verified as accurate (confidence 3) [14BF95AA], AccurateRip returned [3E4C5FA6] (AR v2)
Copy OK
Track 16
Filename E:\FLAC\David Moss - 1991 - My Favorite Things [FLAC]\16 - That Tempest.wav
Pre-gap length 0:00:03.12
Peak level 76.8 %
Extraction speed 3.4 X
Track quality 100.0 %
Test CRC D3E0F267
Copy CRC D3E0F267
Cannot be verified as accurate (confidence 3) [08EB211A], AccurateRip returned [FCD8E441] (AR v2)
Copy OK
No tracks could be verified as accurate
You may have a different pressing from the one(s) in the database
No errors occurred
End of status report
---- CUETools DB Plugin V2.1.3
[CTDB TOCID: wT15oFLHaQgwlpSK10zq.tU1EHA-] found, Submit result: wT15oFLHaQgwlpSK10zq.tU1EHA- has been confirmed
[6670ad93] (3/3) Accurately ripped
==== Log checksum 425A252C448DEC95E5D0FF72F4EE2B03916AE3C3751924BD361BFF15012A0A73 ====
 
Содержание индексной карты (.CUE)
REM GENRE Jazz
REM DATE 1991
REM DISCID BB0C7510
REM COMMENT "ExactAudioCopy v1.0b3"
PERFORMER "David Moss"
TITLE "My Favorite Things"
FILE "01 - Dance On.wav" WAVE
TRACK 01 AUDIO
TITLE "Dance On"
PERFORMER "David Moss"
INDEX 01 00:00:00
TRACK 02 AUDIO
TITLE "Ghosts"
PERFORMER "David Moss"
INDEX 00 03:18:00
FILE "02 - Ghosts.wav" WAVE
INDEX 01 00:00:00
TRACK 03 AUDIO
TITLE "Keemanay"
PERFORMER "David Moss"
INDEX 00 02:47:14
FILE "03 - Keemanay.wav" WAVE
INDEX 01 00:00:00
TRACK 04 AUDIO
TITLE "Stolen"
PERFORMER "David Moss"
INDEX 00 03:15:15
FILE "04 - Stolen.wav" WAVE
INDEX 01 00:00:00
TRACK 05 AUDIO
TITLE "For JB"
PERFORMER "David Moss"
INDEX 00 05:38:13
FILE "05 - For JB.wav" WAVE
INDEX 01 00:00:00
TRACK 06 AUDIO
TITLE "Round Midnight"
PERFORMER "David Moss"
INDEX 00 02:33:18
FILE "06 - Round Midnight.wav" WAVE
INDEX 01 00:00:00
TRACK 07 AUDIO
TITLE "Chebbah"
PERFORMER "David Moss"
INDEX 00 02:05:13
FILE "07 - Chebbah.wav" WAVE
INDEX 01 00:00:00
TRACK 08 AUDIO
TITLE "Die Kunst der Fuge"
PERFORMER "David Moss"
INDEX 00 03:28:64
FILE "08 - Die Kunst der Fuge.wav" WAVE
INDEX 01 00:00:00
TRACK 09 AUDIO
TITLE "In a Silent Way"
PERFORMER "David Moss"
INDEX 00 03:15:14
FILE "09 - In a Silent Way.wav" WAVE
INDEX 01 00:00:00
TRACK 10 AUDIO
TITLE "Slow Talking"
PERFORMER "David Moss"
INDEX 00 02:35:65
FILE "10 - Slow Talking.wav" WAVE
INDEX 01 00:00:00
TRACK 11 AUDIO
TITLE "Delilah"
PERFORMER "David Moss"
INDEX 00 04:10:70
FILE "11 - Delilah.wav" WAVE
INDEX 01 00:00:00
TRACK 12 AUDIO
TITLE "The Girl from Ipanema"
PERFORMER "David Moss"
INDEX 00 02:54:20
FILE "12 - The Girl from Ipanema.wav" WAVE
INDEX 01 00:00:00
TRACK 13 AUDIO
TITLE "My Favorite Things"
PERFORMER "David Moss"
INDEX 00 02:39:15
FILE "13 - My Favorite Things.wav" WAVE
INDEX 01 00:00:00
TRACK 14 AUDIO
TITLE "Poder de Criacao"
PERFORMER "David Moss"
INDEX 00 05:14:38
FILE "14 - Poder de Criacao.wav" WAVE
INDEX 01 00:00:00
TRACK 15 AUDIO
TITLE "About 3 Little Fishes"
PERFORMER "David Moss"
INDEX 00 03:28:13
FILE "15 - About 3 Little Fishes.wav" WAVE
INDEX 01 00:00:00
TRACK 16 AUDIO
TITLE "That Tempest"
PERFORMER "David Moss"
INDEX 00 02:03:41
FILE "16 - That Tempest.wav" WAVE
INDEX 01 00:00:00
 
Отчет CUETools
[CUETools log; Date: 02.11.2013 15:54:56; Version: 2.1.4]
[CTDB TOCID: wT15oFLHaQgwlpSK10zq.tU1EHA-] found.
Track | CTDB Status
1 | (2/2) Accurately ripped
2 | (2/2) Accurately ripped
3 | (2/2) Accurately ripped
4 | (2/2) Accurately ripped
5 | (2/2) Accurately ripped
6 | (2/2) Accurately ripped
7 | (2/2) Accurately ripped
8 | (2/2) Accurately ripped
9 | (2/2) Accurately ripped
10 | (2/2) Accurately ripped
11 | (2/2) Accurately ripped
12 | (2/2) Accurately ripped
13 | (2/2) Accurately ripped
14 | (2/2) Accurately ripped
15 | (2/2) Accurately ripped
16 | (2/2) Accurately ripped
[AccurateRip ID: 001f887b-017a024c-bb0c7510] found.
Track [ CRC | V2 ] Status
01 [e553b625|5de940b8] (0+0/3) No match
02 [3c85db5e|96d7a1c6] (0+0/3) No match
03 [61ac086a|d26a7937] (0+0/3) No match
04 [7f171f61|0850d1cb] (0+0/3) No match
05 [b097a8d8|fe2765c5] (0+0/3) No match
06 [de36c168|0f33a54c] (0+0/3) No match
07 [45e62599|447cec30] (0+0/3) No match
08 [86b1f762|c9fbd627] (0+0/3) No match
09 [91062a9c|4c2063cf] (0+0/3) No match
10 [8c0c893d|8cc4f510] (0+0/3) No match
11 [9c6c1a66|c29cc343] (0+0/3) No match
12 [101edc16|a8a21058] (0+0/3) No match
13 [38903f3f|70ca0ff4] (0+0/3) No match
14 [86f3e9a4|cfdd1c58] (0+0/3) No match
15 [b49c246e|14bf95aa] (0+0/3) No match
16 [f5567066|08eb211a] (0+0/3) No match
Offsetted by 862:
01 [b5dde2ae] (3/3) Accurately ripped
02 [58950e43] (3/3) Accurately ripped
03 [e43490e9] (3/3) Accurately ripped
04 [186668e3] (3/3) Accurately ripped
05 [ef5737ee] (3/3) Accurately ripped
06 [63f8e54b] (3/3) Accurately ripped
07 [33dac682] (3/3) Accurately ripped
08 [9aa9d10f] (3/3) Accurately ripped
09 [c1d26e1b] (3/3) Accurately ripped
10 [e9a8933f] (3/3) Accurately ripped
11 [ff892ad9] (3/3) Accurately ripped
12 [c46dd1c4] (3/3) Accurately ripped
13 [3a7ab18b] (3/3) Accurately ripped
14 [e0b0da5d] (3/3) Accurately ripped
15 [3e4c5fa6] (3/3) Accurately ripped
16 [fcd8e441] (3/3) Accurately ripped
Track Peak [ CRC32 ] [W/O NULL] [ LOG ]
-- 91,4 [52FDFB2F] [3458A226]
01 91,4 [DC23F595] [A6BA9573] CRC32
02 34,2 [C8889649] [8D2DB585] CRC32
03 80,0 [5AF8DF53] [B58A8B2A] CRC32
04 42,7 [6D80E053] [552EF858] CRC32
05 91,1 [F05FFB15] [7437C286] CRC32
06 83,5 [24315EB6] [65F9F3A9] CRC32
07 72,8 [5118E75C] [1C362930] CRC32
08 68,6 [B4A28258] [5CEE78EC] CRC32
09 42,4 [019433EF] [51E42BCD] CRC32
10 41,9 [F3228CAA] [BA8F70C8] CRC32
11 71,0 [00D04F86] [0045D9AC] CRC32
12 52,4 [9AA31C39] [29FBB3A3] CRC32
13 87,5 [DACE49F4] [6681FF3A] CRC32
14 52,9 [EF6D60F8] [D3CEFD12] CRC32
15 71,1 [E65058A8] [009C7A25] CRC32
16 76,8 [D3E0F267] [89EA7C52] CRC32
 
Review by David Dupont
Avant-garde percussionist and vocalist David Moss puts his vocal antics front and center on this ten-years-after follow-up to his debut solo session, Terrains. Moss pays tribute in his own inimitable and bizarre way to the music that has touched him. Influences range from free jazz pioneer Albert Ayler to pop crooner Tom Jones, from African Cheb Khaled to J.S. Bach. Regardless of the material, it all gets run through Moss' improvisational blender. Courtesy of overdubbing, Moss sounds like he's possessed with multiple personalities, and each personality seems to be suffering from Tourette's syndrome. Voices pop in and out of the mix, squawking and wheezing, sometimes squeaky, sometimes stentorian. The result is often, as on "Delilah" or "For JB," his nod to James Brown, a kind of rambunctious musical cartoon. A few tracks are more restrained. "Stolen" showcases his innovative use of steel drum, which he meshes seamlessly with his voice. His set drumming comes to the fore on "In a Silent Way" and "My Favorite Things." The striking choral version of samba "Poder de Criação" is moving, while "About 3 Little Fishes" hints at an early influence of hip-hop. All total up to a striking collection of covers done in highly unlikely fashion.
По всем вопросам пишите личное сообщение пользователю M0p94ok.
19:52
197
Нет комментариев. Ваш будет первым!