Вы используете незарегистрированную версию компонента "Вкладки"!

Поиск

(Free Improvisation, Free Jazz) Simon Nabatov, Nils Wogram, Tom Rainey - Nawora - 2012, FLAC (image+.cue), lossless

(Free Improvisation, Free Jazz) Simon Nabatov, Nils Wogram, Tom Rainey - Nawora - 2012, FLAC (image+.cue), lossless
Треклист:
Nabatov, Wogram, Rainey / Nawora
Жанр: Free Improvisation, Free Jazz
Страна-производитель диска: UK
Год издания: 2012
Издатель (лейбл): Leo Records
Номер по каталогу: CD LR 647
Аудиокодек: FLAC (*.flac)
Тип рипа: image+.cue
Битрейт аудио: lossless
Продолжительность: 61:07
Источник (релизер): cd
Наличие сканов в содержимом раздачи: нет
Треклист:
1. Downstairs Upstairs 5:58
2. Nonchalant Hint 11:55
3. Heroes Like Us 6:10
4. Nail It 7:50
5. Persistence Is A Virtue 12:21
6. Both And 6:29
7. Dust-Tongued Bell 10:03
 
Лог создания рипа
Exact Audio Copy V1.0 beta 2 from 29. April 2011
EAC extraction logfile from 2. November 2013, 17:32
Simon Nabatov, Nils Wogram, Tom Rainey / Nawora
Used drive : Optiarc DVD RW AD-7170A Adapter: 0 ID: 0
Read mode : Secure
Utilize accurate stream : Yes
Defeat audio cache : Yes
Make use of C2 pointers : No
Read offset correction : 48
Overread into Lead-In and Lead-Out : No
Fill up missing offset samples with silence : Yes
Delete leading and trailing silent blocks : No
Null samples used in CRC calculations : Yes
Used interface : Native Win32 interface for Win NT & 2000
Used output format : User Defined Encoder
Selected bitrate : 320 kBit/s
Quality : High
Add ID3 tag : No
Command line compressor : C:\Program Files\Exact Audio Copy\Flac\flac.exe
Additional command line options : -V -8 -T "Date=%year%" -T "Genre=%genre%" %source%
TOC of the extracted CD
Track | Start | Length | Start sector | End sector
---------------------------------------------------------
1 | 0:00.00 | 6:02.20 | 0 | 27169
2 | 6:02.20 | 11:58.44 | 27170 | 81063
3 | 18:00.64 | 6:13.33 | 81064 | 109071
4 | 24:14.22 | 7:53.21 | 109072 | 144567
5 | 32:07.43 | 12:24.12 | 144568 | 200379
6 | 44:31.55 | 6:31.53 | 200380 | 229757
7 | 51:03.33 | 10:04.42 | 229758 | 275099
Range status and errors
Selected range
Filename K:\ЕАС\Simon Nabatov, Nils Wogram, Tom Rainey - Nawora.wav
Peak level 87.7 %
Extraction speed 2.1 X
Range quality 100.0 %
Test CRC 505C5BAA
Copy CRC 505C5BAA
Copy OK
No errors occurred
AccurateRip summary
Track 1 accurately ripped (confidence 1) [4BCC4E76] (AR v1)
Track 2 accurately ripped (confidence 1) [AFAF31B7] (AR v1)
Track 3 accurately ripped (confidence 1) [A0D14146] (AR v1)
Track 4 accurately ripped (confidence 1) [427B285C] (AR v1)
Track 5 accurately ripped (confidence 1) [4258B86D] (AR v1)
Track 6 accurately ripped (confidence 1) [844246FA] (AR v1)
Track 7 accurately ripped (confidence 1) [A0418A7F] (AR v1)
All tracks accurately ripped
End of status report
==== Log checksum 44D98B3DFF09DFD5FCDFF1544CDE0A95854F5F9A906D9E1722DDF93D6FA8385C ====
 
Содержание индексной карты (.CUE)
REM GENRE Jazz
REM DATE 2012
REM DISCID 5F0E5407
REM COMMENT "ExactAudioCopy v1.0b2"
PERFORMER "Simon Nabatov, Nils Wogram, Tom Rainey"
TITLE "Nawora"
FILE "Simon Nabatov, Nils Wogram, Tom Rainey - Nawora.flac" WAVE
TRACK 01 AUDIO
TITLE "Downstairs Upstairs"
PERFORMER "Simon Nabatov, Nils Wogram, Tom Rainey"
ISRC GBJZD1200180
INDEX 01 00:00:00
TRACK 02 AUDIO
TITLE "Nonchalant Hint"
PERFORMER "Simon Nabatov, Nils Wogram, Tom Rainey"
ISRC GBJZD1200181
INDEX 00 05:59:45
INDEX 01 06:02:20
TRACK 03 AUDIO
TITLE "Heroes Like Us"
PERFORMER "Simon Nabatov, Nils Wogram, Tom Rainey"
ISRC GBJZD1200182
INDEX 00 17:58:14
INDEX 01 18:00:64
TRACK 04 AUDIO
TITLE "Nail It"
PERFORMER "Simon Nabatov, Nils Wogram, Tom Rainey"
ISRC GBJZD1200183
INDEX 00 24:11:47
INDEX 01 24:14:22
TRACK 05 AUDIO
TITLE "Persistence Is A Virtue"
PERFORMER "Simon Nabatov, Nils Wogram, Tom Rainey"
ISRC GBJZD1200184
INDEX 00 32:04:68
INDEX 01 32:07:43
TRACK 06 AUDIO
TITLE "Both And"
PERFORMER "Simon Nabatov, Nils Wogram, Tom Rainey"
ISRC GBJZD1200185
INDEX 00 44:29:06
INDEX 01 44:31:55
TRACK 07 AUDIO
TITLE "Dust-Tongued Bell"
PERFORMER "Simon Nabatov, Nils Wogram, Tom Rainey"
ISRC GBJZD1200186
INDEX 00 51:00:58
INDEX 01 51:03:33
Доп. информация: Recorded December 5th 2009 in Loft Cologne
 
Об альбоме (сборнике)
"It comes as no surprise that these three breeze through this session, no matter how weighty or feather-light the musical situation might be. Being at a complete ease and free from dogmatic rules about what one does and does not do in the area of free improvisation makes this compact unit robust and agile at once. The choice of the musical means runs effortlessly the gamut, from "scratch and sniff" esthetics to the healthy red-cheeked jazz and blues vocabulary, with lush romanticism, playful anarchy and many more stops in between. All of it deployed not to show off the considerable prowess of each musician, but to follow the unified sense for the "appropriate" dramaturgical development of the material; material that can be formulated and introduced by each of the three members of this gentle triumvirate."-Leo
 
Состав
Drums – Tom Rainey
Piano – Simon Nabatov
Trombone – Nils Wogram
Any questions -> support@pro-jazz.com. По всем вопросам пишите -> support@pro-jazz.com
19:53
174
Нет комментариев. Ваш будет первым!