Вы используете незарегистрированную версию компонента "Вкладки"!

Поиск

(Free Jazz, Avant-Garde, Ethnic, Label Bleu) Aldo Romano, Louis Sclavis, Henri Texier - Carnet de routes - 1995, FLAC (tracks+.cue), lossless

(Free Jazz, Avant-Garde, Ethnic, Label Bleu) Aldo Romano, Louis Sclavis, Henri Texier - Carnet de routes - 1995, FLAC (tracks+.cue), lossless
Треклист:
Romano, Sclavis, Texier / Carnet de routes
Жанр: Free Jazz, Avant-Garde, Ethnic, Label Bleu
Страна-производитель диска: France
Год издания: 1995
Издатель (лейбл): Label Bleu
Номер по каталогу: LBLC 6569 / HM 92
Аудиокодек: FLAC (*.flac)
Тип рипа: tracks+.cue
Битрейт аудио: lossless
Продолжительность: 47:48
Источник (релизер): я
Наличие сканов в содержимом раздачи: front + back + CD
Треклист:
1. Standing Ovation (for Mandela) (Aldo Romano) 4:26
2. Vol (Louis Sclavis) 6:02
3. Daoulagad (à GLQ) (Henri Texier) 6:22
4. Boroko Dance (Aldo Romano) 6:47
5. Annobon (Aldo Romano) 5:03
6. Les Petits Lits blancs (Louis Sclavis) 6:55
7. Flash mémoire (Louis Sclavis) 3:25
8. Korokoro (Henri Texier) 5:18
9. Entrave (Henri Texier) 3:30
Enregistré au Studio de la Maison de la Culture d’Amiens en 1994 et 1995.
Aldo Romano – batterie
Louis Sclavis – clarinette, saxophone soprano
Henri Texier – contrebasse
 
Лог создания рипа
Exact Audio Copy V1.0 beta 3 from 29. August 2011
EAC extraction logfile from 2. November 2013, 15:08
Romano, Sclavis, Texier / Carnet de routes
Used drive : SlimtypeeNAU508 5 Adapter: 1 ID: 0
Read mode : Secure
Utilize accurate stream : Yes
Defeat audio cache : Yes
Make use of C2 pointers : No
Read offset correction : 6
Overread into Lead-In and Lead-Out : No
Fill up missing offset samples with silence : Yes
Delete leading and trailing silent blocks : No
Null samples used in CRC calculations : Yes
Used interface : Native Win32 interface for Win NT & 2000
Gap handling : Appended to previous track
Used output format : User Defined Encoder
Selected bitrate : 768 kBit/s
Quality : High
Add ID3 tag : No
Command line compressor : C:\Program Files (x86)\Exact Audio Copy\Flac\flac.exe
Additional command line options : -8 -V -T "ARTIST=%artist%" -T "TITLE=%title%" -T "ALBUM=%albumtitle%" -T "DATE=%year%" -T "TRACKNUMBER=%tracknr%" -T "GENRE=%genre%" -T "PERFORMER=%albuminterpret%" -T "COMPOSER=%composer%" %haslyrics%--tag-from-file=LYRICS="%lyricsfile%"%haslyrics% -T "ALBUMARTIST=%albumartist%" -T "DISCNUMBER=%cdnumber%" -T "TOTALDISCS=%totalcds%" -T "TOTALTRACKS=%numtracks%" -T "COMMENT=%comment%" %source% -o %dest%
TOC of the extracted CD
Track | Start | Length | Start sector | End sector
---------------------------------------------------------
1 | 0:00.33 | 4:26.32 | 33 | 20014
2 | 4:26.65 | 6:02.33 | 20015 | 47197
3 | 10:29.23 | 6:21.57 | 47198 | 75829
4 | 16:51.05 | 6:46.45 | 75830 | 106324
5 | 23:37.50 | 5:02.70 | 106325 | 129044
6 | 28:40.45 | 6:55.25 | 129045 | 160194
7 | 35:35.70 | 3:25.00 | 160195 | 175569
8 | 39:00.70 | 5:17.63 | 175570 | 199407
9 | 44:18.58 | 3:29.50 | 199408 | 215132
Track 1
Filename C:\EAC rips\01 - Standing Ovation (for Mandela).wav
Pre-gap length 0:00:02.33
Peak level 99.3 %
Extraction speed 1.0 X
Track quality 100.0 %
Test CRC 9CC7A451
Copy CRC 9CC7A451
Accurately ripped (confidence 37) [A1E841DC] (AR v2)
Copy OK
Track 2
Filename C:\EAC rips\02 - Vol.wav
Pre-gap length 0:00:02.70
Peak level 99.3 %
Extraction speed 1.2 X
Track quality 100.0 %
Test CRC 121954D8
Copy CRC 121954D8
Accurately ripped (confidence 37) [0D215CE5] (AR v2)
Copy OK
Track 3
Filename C:\EAC rips\03 - Daoulagad (à GLQ).wav
Pre-gap length 0:00:01.08
Peak level 99.3 %
Extraction speed 1.3 X
Track quality 99.9 %
Test CRC 0599FCE4
Copy CRC 0599FCE4
Accurately ripped (confidence 37) [0AFA7D83] (AR v2)
Copy OK
Track 4
Filename C:\EAC rips\04 - Boroko Dance.wav
Pre-gap length 0:00:03.37
Peak level 99.3 %
Extraction speed 1.6 X
Track quality 100.0 %
Test CRC 52F4F0A5
Copy CRC 52F4F0A5
Accurately ripped (confidence 36) [8A6E7D97] (AR v2)
Copy OK
Track 5
Filename C:\EAC rips\05 - Annobon.wav
Pre-gap length 0:00:01.67
Peak level 99.3 %
Extraction speed 1.7 X
Track quality 100.0 %
Test CRC C99C3E3E
Copy CRC C99C3E3E
Accurately ripped (confidence 37) [B42D7590] (AR v2)
Copy OK
Track 6
Filename C:\EAC rips\06 - Les Petits Lits blancs.wav
Pre-gap length 0:00:02.50
Peak level 99.3 %
Extraction speed 1.7 X
Track quality 99.9 %
Test CRC 0F801542
Copy CRC 0F801542
Accurately ripped (confidence 37) [81D8D056] (AR v2)
Copy OK
Track 7
Filename C:\EAC rips\07 - Flash mémoire.wav
Pre-gap length 0:00:02.50
Peak level 99.3 %
Extraction speed 1.8 X
Track quality 100.0 %
Test CRC 19379FDA
Copy CRC 19379FDA
Accurately ripped (confidence 37) [909A41B3] (AR v2)
Copy OK
Track 8
Filename C:\EAC rips\08 - Korokoro.wav
Pre-gap length 0:00:02.20
Peak level 99.3 %
Extraction speed 2.0 X
Track quality 100.0 %
Test CRC 0F977E2A
Copy CRC 0F977E2A
Accurately ripped (confidence 36) [ED5B2BE5] (AR v2)
Copy OK
Track 9
Filename C:\EAC rips\09 - Entrave.wav
Pre-gap length 0:00:02.48
Peak level 99.3 %
Extraction speed 1.9 X
Track quality 100.0 %
Test CRC B60D68D0
Copy CRC B60D68D0
Accurately ripped (confidence 37) [E469BA1E] (AR v2)
Copy OK
All tracks accurately ripped
No errors occurred
End of status report
---- CUETools DB Plugin V2.1.4
[CTDB TOCID: m.9d0ncKc7ptvz.qPhbKW0uhIGE-] found
Submit result: m.9d0ncKc7ptvz.qPhbKW0uhIGE- has been confirmed
Track | CTDB Status
1 | (1/1) Accurately ripped
2 | (1/1) Accurately ripped
3 | (1/1) Accurately ripped
4 | (1/1) Accurately ripped
5 | (1/1) Accurately ripped
6 | (1/1) Accurately ripped
7 | (1/1) Accurately ripped
8 | (1/1) Accurately ripped
9 | (1/1) Accurately ripped
==== Log checksum F636461846151B16AEBFF27311268646C6EE9B1D4B476E07FB5C439112E53A1D ====
 
Содержание индексной карты (.CUE)
REM GENRE Jazz
REM DATE 1995
REM DISCID 620B3409
REM COMMENT "ExactAudioCopy v1.0b3"
PERFORMER "Romano, Sclavis, Texier"
TITLE "Carnet de routes"
FILE "01 - Standing Ovation (for Mandela).wav" WAVE
TRACK 01 AUDIO
TITLE "Standing Ovation (for Mandela)"
PERFORMER "Romano, Sclavis, Texier"
PREGAP 00:00:33
INDEX 01 00:00:00
TRACK 02 AUDIO
TITLE "Vol"
PERFORMER "Romano, Sclavis, Texier"
INDEX 00 04:23:37
FILE "02 - Vol.wav" WAVE
INDEX 01 00:00:00
TRACK 03 AUDIO
TITLE "Daoulagad (à GLQ)"
PERFORMER "Romano, Sclavis, Texier"
INDEX 00 06:01:25
FILE "03 - Daoulagad (à GLQ).wav" WAVE
INDEX 01 00:00:00
TRACK 04 AUDIO
TITLE "Boroko Dance"
PERFORMER "Romano, Sclavis, Texier"
INDEX 00 06:18:20
FILE "04 - Boroko Dance.wav" WAVE
INDEX 01 00:00:00
TRACK 05 AUDIO
TITLE "Annobon"
PERFORMER "Romano, Sclavis, Texier"
INDEX 00 06:44:53
FILE "05 - Annobon.wav" WAVE
INDEX 01 00:00:00
TRACK 06 AUDIO
TITLE "Les Petits Lits blancs"
PERFORMER "Romano, Sclavis, Texier"
INDEX 00 05:00:20
FILE "06 - Les Petits Lits blancs.wav" WAVE
INDEX 01 00:00:00
TRACK 07 AUDIO
TITLE "Flash mémoire"
PERFORMER "Romano, Sclavis, Texier"
INDEX 00 06:52:50
FILE "07 - Flash mémoire.wav" WAVE
INDEX 01 00:00:00
TRACK 08 AUDIO
TITLE "Korokoro"
PERFORMER "Romano, Sclavis, Texier"
INDEX 00 03:22:55
FILE "08 - Korokoro.wav" WAVE
INDEX 01 00:00:00
TRACK 09 AUDIO
TITLE "Entrave"
PERFORMER "Romano, Sclavis, Texier"
INDEX 00 05:15:15
FILE "09 - Entrave.wav" WAVE
INDEX 01 00:00:00
Any questions -> support@pro-jazz.com. По всем вопросам пишите -> support@pro-jazz.com
19:54
244
Нет комментариев. Ваш будет первым!