Вы используете незарегистрированную версию компонента "Вкладки"!

Поиск

(Free Improvisation) Matthew Shipp Horn Quartet - Strata - 1998, FLAC (tracks+.cue), lossless

(Free Improvisation) Matthew Shipp Horn Quartet - Strata - 1998, FLAC (tracks+.cue), lossless
Треклист:
Matthew Shipp Horn Quartet - Strata
Жанр: Free Improvisation
Страна-производитель диска: Switzerland
Год издания: 1998
Издатель (лейбл): Hat Hut Records / hatOLOGY
Номер по каталогу: hatOLOGY 522
Аудиокодек: FLAC (*.flac)
Тип рипа: tracks+.cue
Битрейт аудио: lossless
Продолжительность: 00:58:48
Источник (релизер): nnm, Джаз Клуб, 24 октября, 2013 / спасибо mishka1981
Наличие сканов в содержимом раздачи: да / *.jpg (300 dpi)
Треклист:
1. Strata (00:47)
2. Strata (01:23)
3. Strata (07:45)
4. Strata (03:18)
5. Strata (07:05)
6. Strata (03:33)
7. Strata (05:36)
8. Strata (05:30)
9. Strata (05:43)
10. Strata (05:20)
11. Strata (04:18)
12. Strata (06:41)
13. Strata (00:59)
14. Strata (00:50)
Composed by Matthew Shipp
Доп. информация:
Musicians:
ROY CAMPBELL - trumpet & pocket trumpet
DANIEL CARTER - alto- & tenor saxophone, flute & trumpet
WILLIAM PARKER - doublebass
MATTHEW SHIPP - piano
Recorded on December 14, 1997 by Mike Cyr at Sorcerer Sound, New York N.Y.
MATTHEW SHIPP HORN QUARTET - Strata allmusic.com
MATTHEW SHIPP Official Site
MATTHEW SHIPP from Wikipedia, the free encyclopedia
 
... review ...
In this work, and with the String Trio (By the Law of Music, also on Hat), Shipp began moving into the musical and tonal language he created for himself from his many aspirations and influences. Yes. That's right, for himself. Not out of Cecil Taylor's. On the ten "movements" that make up Strata, Shipp has moved into a space in modern music that almost no one else - with the possible exception of his long-term collaborator William Parker - has ever even visited let alone dwelt there. Shipp is doing something truly new - something very different in how he uses (non-spontaneous) composition and improvisation as equal parts of the whole with determined territories for them, though neither knows where the other will lead. This is music rooted not only in free jazz and European classical music but in gutbucket funky blues and early swing, too. Using the fickle, but dramatic sonances of paired trumpets and combinations of saxophones and trumpets and flutes and trumpets, he's reaching, farther than anyone to make the piano a singer's voice in the midst of all that shifting harmony and drama - and with Parker on the set, there is always drama because by his very nature as a musician he wants one more mode to go, go, go! Shipp puts his melodic ear to the test of color and shade, relying on his bandmates to fill in shape, texture, and chromatic backdrops. His over-handed arpeggios come more from Scriabin than from Ellington, it's true, but his wide chords are inherited from theAndrew Hill lineage. Each section has its own character, as if Shipp was trying to create a whole from the void, make it manifest itself a bit at a time. His constructive interval work creates a sonic architecture that offers multifaceted freedoms to his horn players, and a blank check to Parker to go where thou will. In just under and hour, you have moved from the country to the city, the forest into the cave, and from the pale darkness to a sunlight refracted in the light of a thousand prisms. It is a stunning work, really, that showcases Shipp at the height of his compositional and improvisational powers, and points the way to the flowering of his vast talent as an arranger as well. Most artists wait for an entire career to release a recording this full of life, breath, and vision. Shipp is releasing them, it seems, multiple times a year.
Thom Jurek ~ allmusic.com
 
Лог создания рипа
Exact Audio Copy V1.0 beta 1 from 15. November 2010
EAC extraction logfile from 22. October 2013, 14:31
Matthew Shipp Horn Quartet / Strata
Used drive : TSSTcorpCDDVDW TS-L633A Adapter: 3 ID: 0
Read mode : Secure
Utilize accurate stream : Yes
Defeat audio cache : Yes
Make use of C2 pointers : No
Read offset correction : 6
Overread into Lead-In and Lead-Out : No
Fill up missing offset samples with silence : Yes
Delete leading and trailing silent blocks : No
Null samples used in CRC calculations : Yes
Used interface : Installed external ASPI interface
Gap handling : Appended to previous track
Used output format : User Defined Encoder
Selected bitrate : 896 kBit/s
Quality : High
Add ID3 tag : No
Command line compressor : C:\Program Files\Exact Audio Copy\FLAC\FLAC.EXE
Additional command line options : -8 -V -T "ARTIST=%a" -T "TITLE=%t" -T "ALBUM=%g" -T "DATE=%y" -T "TRACKNUMBER=%n" -T "TOTALTRACKS=%x" -T "GENRE=%m" -T "ALBUMARTIST=%v" -T "ALBUM ARTIST=%v" -T "COMMENT=EAC Secure Mode, Test & Copy, AccurateRip, FLAC -8" %s
TOC of the extracted CD
Track | Start | Length | Start sector | End sector
---------------------------------------------------------
1 | 0:00.00 | 0:47.62 | 0 | 3586
2 | 0:47.62 | 1:23.00 | 3587 | 9811
3 | 2:10.62 | 7:45.00 | 9812 | 44686
4 | 9:55.62 | 3:18.00 | 44687 | 59536
5 | 13:13.62 | 7:05.00 | 59537 | 91411
6 | 20:18.62 | 3:33.00 | 91412 | 107386
7 | 23:51.62 | 5:36.00 | 107387 | 132586
8 | 29:27.62 | 5:30.00 | 132587 | 157336
9 | 34:57.62 | 5:43.00 | 157337 | 183061
10 | 40:40.62 | 5:20.00 | 183062 | 207061
11 | 46:00.62 | 4:18.00 | 207062 | 226411
12 | 50:18.62 | 6:41.00 | 226412 | 256486
13 | 56:59.62 | 0:58.50 | 256487 | 260886
14 | 57:58.37 | 0:50.38 | 260887 | 264674
Track 1
Filename C:\MY RIPS\01 - Strata 1.wav
Pre-gap length 0:00:02.00
Peak level 85.2 %
Extraction speed 0.4 X
Track quality 99.7 %
Test CRC 70127D81
Copy CRC 70127D81
Accurately ripped (confidence 2) [934EFA4D]
Copy OK
Track 2
Filename C:\MY RIPS\02 - Strata 2.wav
Peak level 77.4 %
Extraction speed 0.6 X
Track quality 99.8 %
Test CRC E01C875A
Copy CRC E01C875A
Accurately ripped (confidence 2) [0F173EB8]
Copy OK
Track 3
Filename C:\MY RIPS\03 - Strata 3.wav
Peak level 91.4 %
Extraction speed 1.3 X
Track quality 100.0 %
Test CRC E4B5C3A9
Copy CRC E4B5C3A9
Accurately ripped (confidence 2) [E7B89041]
Copy OK
Track 4
Filename C:\MY RIPS\04 - Strata 4.wav
Peak level 91.1 %
Extraction speed 1.3 X
Track quality 100.0 %
Test CRC D27A7BEC
Copy CRC D27A7BEC
Accurately ripped (confidence 2) [5755C4C4]
Copy OK
Track 5
Filename C:\MY RIPS\05 - Strata 5.wav
Peak level 90.5 %
Extraction speed 1.5 X
Track quality 100.0 %
Test CRC 05D31508
Copy CRC 05D31508
Accurately ripped (confidence 2) [9D524D2C]
Copy OK
Track 6
Filename C:\MY RIPS\06 - Strata 6.wav
Peak level 90.7 %
Extraction speed 1.5 X
Track quality 100.0 %
Test CRC CB858F02
Copy CRC CB858F02
Accurately ripped (confidence 2) [A1A4CF61]
Copy OK
Track 7
Filename C:\MY RIPS\07 - Strata 7.wav
Peak level 75.9 %
Extraction speed 1.7 X
Track quality 100.0 %
Test CRC 39C7242A
Copy CRC 39C7242A
Accurately ripped (confidence 2) [4BB35FD5]
Copy OK
Track 8
Filename C:\MY RIPS\08 - Strata 8.wav
Peak level 90.8 %
Extraction speed 1.8 X
Track quality 100.0 %
Test CRC 5C97E869
Copy CRC 5C97E869
Accurately ripped (confidence 2) [B1B8B756]
Copy OK
Track 9
Filename C:\MY RIPS\09 - Strata 9.wav
Peak level 92.1 %
Extraction speed 1.5 X
Track quality 99.9 %
Test CRC EBCA512F
Copy CRC EBCA512F
Accurately ripped (confidence 2) [746572FD]
Copy OK
Track 10
Filename C:\MY RIPS\10 - Strata 10.wav
Peak level 85.5 %
Extraction speed 2.0 X
Track quality 100.0 %
Test CRC B1DDE633
Copy CRC B1DDE633
Accurately ripped (confidence 2) [6804267D]
Copy OK
Track 11
Filename C:\MY RIPS\11 - Strata 11.wav
Peak level 90.7 %
Extraction speed 1.4 X
Track quality 99.9 %
Test CRC 3046889E
Copy CRC 3046889E
Accurately ripped (confidence 2) [91DAF4F7]
Copy OK
Track 12
Filename C:\MY RIPS\12 - Strata 12.wav
Peak level 91.8 %
Extraction speed 1.2 X
Track quality 99.9 %
Test CRC A2FBFF1E
Copy CRC DE8E1005
Cannot be verified as accurate (confidence 5) [4F2E450D], AccurateRip returned [FCD3491A]
Copy OK
Track 13
Filename C:\MY RIPS\13 - Strata 13.wav
Peak level 59.6 %
Extraction speed 0.2 X
Track quality 99.3 %
Test CRC 6BB7FAB9
Copy CRC 6BB7FAB9
Accurately ripped (confidence 2) [AAD27CD8]
Copy OK
Track 14
Filename C:\MY RIPS\14 - Strata 14.wav
Peak level 90.9 %
Extraction speed 0.1 X
Track quality 99.3 %
Test CRC 02D2B57C
Copy CRC 02D2B57C
Accurately ripped (confidence 2) [95840887]
Copy OK
13 track(s) accurately ripped
1 track(s) could not be verified as accurate
Some tracks could not be verified as accurate
No errors occurred
End of status report
==== Log checksum 94954BD646892A41E4921FA28CF1AFE832FAF7047A9BE2C019526FA1E3D0BEA2 ====
 
Содержание индексной карты (.CUE)
REM GENRE Jazz
REM DATE 1998
REM DISCID B50DC90E
REM COMMENT "ExactAudioCopy v1.0b1"
PERFORMER "Matthew Shipp Horn Quartet"
TITLE "Strata"
FILE "01 - Strata 1.wav" WAVE
TRACK 01 AUDIO
TITLE "Strata 1"
PERFORMER "Matthew Shipp Horn Quartet"
INDEX 01 00:00:00
FILE "02 - Strata 2.wav" WAVE
TRACK 02 AUDIO
TITLE "Strata 2"
PERFORMER "Matthew Shipp Horn Quartet"
INDEX 01 00:00:00
FILE "03 - Strata 3.wav" WAVE
TRACK 03 AUDIO
TITLE "Strata 3"
PERFORMER "Matthew Shipp Horn Quartet"
INDEX 01 00:00:00
FILE "04 - Strata 4.wav" WAVE
TRACK 04 AUDIO
TITLE "Strata 4"
PERFORMER "Matthew Shipp Horn Quartet"
INDEX 01 00:00:00
FILE "05 - Strata 5.wav" WAVE
TRACK 05 AUDIO
TITLE "Strata 5"
PERFORMER "Matthew Shipp Horn Quartet"
INDEX 01 00:00:00
FILE "06 - Strata 6.wav" WAVE
TRACK 06 AUDIO
TITLE "Strata 6"
PERFORMER "Matthew Shipp Horn Quartet"
INDEX 01 00:00:00
FILE "07 - Strata 7.wav" WAVE
TRACK 07 AUDIO
TITLE "Strata 7"
PERFORMER "Matthew Shipp Horn Quartet"
INDEX 01 00:00:00
FILE "08 - Strata 8.wav" WAVE
TRACK 08 AUDIO
TITLE "Strata 8"
PERFORMER "Matthew Shipp Horn Quartet"
INDEX 01 00:00:00
FILE "09 - Strata 9.wav" WAVE
TRACK 09 AUDIO
TITLE "Strata 9"
PERFORMER "Matthew Shipp Horn Quartet"
INDEX 01 00:00:00
FILE "10 - Strata 10.wav" WAVE
TRACK 10 AUDIO
TITLE "Strata 10"
PERFORMER "Matthew Shipp Horn Quartet"
INDEX 01 00:00:00
FILE "11 - Strata 11.wav" WAVE
TRACK 11 AUDIO
TITLE "Strata 11"
PERFORMER "Matthew Shipp Horn Quartet"
INDEX 01 00:00:00
FILE "12 - Strata 12.wav" WAVE
TRACK 12 AUDIO
TITLE "Strata 12"
PERFORMER "Matthew Shipp Horn Quartet"
INDEX 01 00:00:00
FILE "13 - Strata 13.wav" WAVE
TRACK 13 AUDIO
TITLE "Strata 13"
PERFORMER "Matthew Shipp Horn Quartet"
INDEX 01 00:00:00
FILE "14 - Strata 14.wav" WAVE
TRACK 14 AUDIO
TITLE "Strata 14"
PERFORMER "Matthew Shipp Horn Quartet"
INDEX 01 00:00:00
 
auCDtect Task Manager
-----------------------
DON'T MODIFY THIS FILE
-----------------------
PERFORMER: auCDtect Task Manager, ver. 1.5.1RC6 build 1.5.1.7
Copyright (c) 2008-2010 y-soft. All rights reserved
http://y-soft.org
ANALYZER: auCDtect: CD records authenticity detector, version 0.8.2
Copyright (c) 2004 Oleg Berngardt. All rights reserved.
Copyright (c) 2004 Alexander Djourik. All rights reserved.
FILE: 14 - Strata 14.flac
Size: 3506948 Hash: BB050631FD3A2624A9352F1E01C2E944 Accuracy: -m0
Conclusion: CDDA 100%
Signature: 0F4A4E4780C2D9FCBE679FA5F393E12F98C3AAF4
FILE: 13 - Strata 13.flac
Size: 3194862 Hash: 9BFD3D3D6B52680448BC8C47DD135559 Accuracy: -m0
Conclusion: CDDA 99%
Signature: 5A71F4C1F3D1C9825FB46028F612EFD35BFEB2B4
FILE: 12 - Strata 12.flac
Size: 30486432 Hash: 64EF320678CD3561D8547F6673C34102 Accuracy: -m0
Conclusion: CDDA 100%
Signature: 76D40B89110D48FD21B2B5BD63DFA437549D47E3
FILE: 11 - Strata 11.flac
Size: 13898774 Hash: 19023949C296341184C455C04F3B1EC2 Accuracy: -m0
Conclusion: CDDA 99%
Signature: EC7A981672F9DE9D745EB5684BF098520AC2D874
FILE: 10 - Strata 10.flac
Size: 21505495 Hash: 4300FF0119743625E90ACADA32A84ACC Accuracy: -m0
Conclusion: CDDA 100%
Signature: 63EE38BDD9CBE651DF1FD296DEA41EA52ADE28AF
FILE: 09 - Strata 9.flac
Size: 21888917 Hash: 82BC69C5E1E36B7181A93F71B3019A15 Accuracy: -m0
Conclusion: CDDA 100%
Signature: 05596C00B3B5B214E3A5668D89D998CA0FF02849
FILE: 08 - Strata 8.flac
Size: 24231272 Hash: D63063B22C305AF7C5E30CF9C7B1386A Accuracy: -m0
Conclusion: CDDA 100%
Signature: 81269101298658BC19798D8D29E5AAA174409F24
FILE: 07 - Strata 7.flac
Size: 21563814 Hash: 80D64C91C29FECDD7F938272D2807F9A Accuracy: -m0
Conclusion: CDDA 100%
Signature: 41BA8E463A55B607EB495AF8F5E0FA4679187605
FILE: 06 - Strata 6.flac
Size: 14451998 Hash: 7B7C34E514842FA271C5AD770FE35113 Accuracy: -m0
Conclusion: CDDA 100%
Signature: F42713E81B5EC1B7BE0DE71A36BC5B2D84720162
FILE: 05 - Strata 5.flac
Size: 27628575 Hash: E521AA19120AA5D1FF113E5BB3FBFC77 Accuracy: -m0
Conclusion: CDDA 99%
Signature: 2BBF996707609D1863A914214C79EF00F5EE0B4C
FILE: 04 - Strata 4.flac
Size: 11635494 Hash: D938747ABA0AFCAC0A50427CA1F1D459 Accuracy: -m0
Conclusion: CDDA 100%
Signature: 72CC7F0D184FB6A11DE36C368926735D2020B92F
FILE: 03 - Strata 3.flac
Size: 31988839 Hash: 959433CC6F55506FC606017A154FB0FC Accuracy: -m0
Conclusion: CDDA 100%
Signature: BC2F3DDAC827ACE81B2BB84BCDB856FD475DF67C
FILE: 02 - Strata 2.flac
Size: 4750798 Hash: B611F7326CBADC1DAD50FA5B3F1A552C Accuracy: -m0
Conclusion: CDDA 100%
Signature: 8D8E6DB7ABB5C427D19EDC81AE7A2D69B21BE213
FILE: 01 - Strata 1.flac
Size: 3429661 Hash: 6B53DA2B52EE8D2A80B0A81249F6AB4B Accuracy: -m0
Conclusion: CDDA 100%
Signature: C66CE8316EDD194853A281FF8A7D5CCD55428FA9
Any questions -> support@pro-jazz.com. По всем вопросам пишите -> support@pro-jazz.com
19:55
170
Нет комментариев. Ваш будет первым!