Вы используете незарегистрированную версию компонента "Вкладки"!

Поиск

(Avant-Garde, Free Jazz, Cuneiform Records) Wadada Leo Smith - Spiritual Dimensions (2CDs) - 2009, FLAC (tracks+.cue), lossless

(Avant-Garde, Free Jazz, Cuneiform Records) Wadada Leo Smith - Spiritual Dimensions (2CDs) - 2009, FLAC (tracks+.cue), lossless
Треклист:
Wadada Leo Smith / Spiritual Dimensions (2CDs)
Жанр: Avant-Garde, Free Jazz, Cuneiform Records
Страна-производитель диска: U.S.A.
Год издания: 2009
Издатель (лейбл): Cuneiform Records
Номер по каталогу: Rune 290/291
Аудиокодек: FLAC (*.flac)
Тип рипа: tracks+.cue
Битрейт аудио: lossless
Продолжительность: 55:49 + 1:03:43
Источник (релизер): я
Наличие сканов в содержимом раздачи: front + back
Треклист:
Disc 1: Wadada Leo Smith’s Golden Quintet
1. Al-Shadhili’s Litany of the Sea: Sunrise 12:59
2. Pacifica 5:49
3. Umar at the Dome of the Rock, parts 1 & 2 14:56
4. Crossing Sirat 6:22
5. South Central L.A. Kulture 15:42
All compositions by Wadada Leo Smith.
Wadada Leo Smith – Trumpet
Vijay Iyer – Piano, Synthesizer
John Lindberg – Bass
Pheeroan AkLaff – Drums
Don Moye – Drums
Recorded live at Vision XIII, June 13, 2008, New York City.
Disc 2: Wadada Leo Smith’s Organic
1. South Central L.A. Kulture 12:37
2. Angela Davis 19:23
3. Organic 18:09
4. Joy: Spiritual Fire: Joy 13:34
All compositions by Wadada Leo Smith.
Wadada Leo Smith – Trumpet
Michael Gregory – Electric Guitar
Brandon Ross – Electric Guitar
Nels Cline – 6- and 12-String Electric Guitar
Lamar Smith – Electric Guitar (2-1, 2-4)
Okkyung Lee – Cello
Skuli Sverrisson – Electric Bass
John Lindberg – Acoustic Bass
Pheeroan AkLaff – Drums
Recorded live at Firehouse 12, April 17, 2009, New Haven, CT.
 
Лог создания рипа
 
Disc 1
Exact Audio Copy V1.0 beta 3 from 29. August 2011
EAC extraction logfile from 31. October 2013, 10:35
Wadada Leo Smith's Golden Quintet / Spritual Dimensions (Disc 1)
Used drive : SlimtypeeNAU508 5 Adapter: 1 ID: 0
Read mode : Secure
Utilize accurate stream : Yes
Defeat audio cache : Yes
Make use of C2 pointers : No
Read offset correction : 6
Overread into Lead-In and Lead-Out : No
Fill up missing offset samples with silence : Yes
Delete leading and trailing silent blocks : No
Null samples used in CRC calculations : Yes
Used interface : Native Win32 interface for Win NT & 2000
Gap handling : Appended to previous track
Used output format : User Defined Encoder
Selected bitrate : 768 kBit/s
Quality : High
Add ID3 tag : No
Command line compressor : C:\Program Files (x86)\Exact Audio Copy\Flac\flac.exe
Additional command line options : -8 -V -T "ARTIST=%artist%" -T "TITLE=%title%" -T "ALBUM=%albumtitle%" -T "DATE=%year%" -T "TRACKNUMBER=%tracknr%" -T "GENRE=%genre%" -T "PERFORMER=%albuminterpret%" -T "COMPOSER=%composer%" %haslyrics%--tag-from-file=LYRICS="%lyricsfile%"%haslyrics% -T "ALBUMARTIST=%albumartist%" -T "DISCNUMBER=%cdnumber%" -T "TOTALDISCS=%totalcds%" -T "TOTALTRACKS=%numtracks%" -T "COMMENT=%comment%" %source% -o %dest%
TOC of the extracted CD
Track | Start | Length | Start sector | End sector
---------------------------------------------------------
1 | 0:00.00 | 12:59.05 | 0 | 58429
2 | 12:59.05 | 5:49.18 | 58430 | 84622
3 | 18:48.23 | 14:55.72 | 84623 | 151819
4 | 33:44.20 | 6:22.12 | 151820 | 180481
5 | 40:06.32 | 15:42.28 | 180482 | 251159
Track 1
Filename C:\EAC rips\01 - Al-Shadhili's Litany of the Sea - Sunrise.wav
Pre-gap length 0:00:02.00
Peak level 98.8 %
Extraction speed 2.6 X
Track quality 100.0 %
Test CRC 7A7EA40B
Copy CRC 7A7EA40B
Accurately ripped (confidence 5) [3D00E72B] (AR v2)
Copy OK
Track 2
Filename C:\EAC rips\02 - Pacifica.wav
Pre-gap length 0:00:01.39
Peak level 98.8 %
Extraction speed 2.5 X
Track quality 99.9 %
Test CRC 7E2F4B50
Copy CRC 7E2F4B50
Accurately ripped (confidence 5) [90241552] (AR v2)
Copy OK
Track 3
Filename C:\EAC rips\03 - Umar at the Dome of the Rock, parts 1 & 2.wav
Pre-gap length 0:00:00.12
Peak level 98.8 %
Extraction speed 3.6 X
Track quality 100.0 %
Test CRC F491160F
Copy CRC F491160F
Accurately ripped (confidence 5) [26F9DD99] (AR v2)
Copy OK
Track 4
Filename C:\EAC rips\04 - Crossing Sirat.wav
Pre-gap length 0:00:03.42
Peak level 98.8 %
Extraction speed 3.7 X
Track quality 100.0 %
Test CRC 02883232
Copy CRC 02883232
Accurately ripped (confidence 5) [1BFA4B9C] (AR v2)
Copy OK
Track 5
Filename C:\EAC rips\05 - South Central L.A. Kulture.wav
Pre-gap length 0:00:00.47
Peak level 100.0 %
Extraction speed 4.3 X
Track quality 100.0 %
Test CRC 78397204
Copy CRC 78397204
Accurately ripped (confidence 5) [42607A74] (AR v2)
Copy OK
All tracks accurately ripped
No errors occurred
End of status report
---- CUETools DB Plugin V2.1.4
[CTDB TOCID: P8amQFi2ER0kkHEz1zeOja_fDGU-] found
Submit result: already submitted
Track | CTDB Status
1 | (2/2) Accurately ripped
2 | (2/2) Accurately ripped
3 | (2/2) Accurately ripped
4 | (2/2) Accurately ripped
5 | (2/2) Accurately ripped
==== Log checksum 8E69F872B2459FDC9FA0E23D62B8F92043AE63A1413237CF8EB0C85390EC47E5 ====
 
Disc 2
Exact Audio Copy V1.0 beta 3 from 29. August 2011
EAC extraction logfile from 31. October 2013, 11:48
Wadada Leo Smith's Organic / Spiritual Dimensions (Disc 2)
Used drive : SlimtypeeNAU508 5 Adapter: 1 ID: 0
Read mode : Secure
Utilize accurate stream : Yes
Defeat audio cache : Yes
Make use of C2 pointers : No
Read offset correction : 6
Overread into Lead-In and Lead-Out : No
Fill up missing offset samples with silence : Yes
Delete leading and trailing silent blocks : No
Null samples used in CRC calculations : Yes
Used interface : Native Win32 interface for Win NT & 2000
Gap handling : Appended to previous track
Used output format : User Defined Encoder
Selected bitrate : 768 kBit/s
Quality : High
Add ID3 tag : No
Command line compressor : C:\Program Files (x86)\Exact Audio Copy\Flac\flac.exe
Additional command line options : -8 -V -T "ARTIST=%artist%" -T "TITLE=%title%" -T "ALBUM=%albumtitle%" -T "DATE=%year%" -T "TRACKNUMBER=%tracknr%" -T "GENRE=%genre%" -T "PERFORMER=%albuminterpret%" -T "COMPOSER=%composer%" %haslyrics%--tag-from-file=LYRICS="%lyricsfile%"%haslyrics% -T "ALBUMARTIST=%albumartist%" -T "DISCNUMBER=%cdnumber%" -T "TOTALDISCS=%totalcds%" -T "TOTALTRACKS=%numtracks%" -T "COMMENT=%comment%" %source% -o %dest%
TOC of the extracted CD
Track | Start | Length | Start sector | End sector
---------------------------------------------------------
1 | 0:00.00 | 12:37.01 | 0 | 56775
2 | 12:37.01 | 19:23.08 | 56776 | 144008
3 | 32:00.09 | 18:09.09 | 144009 | 225692
4 | 50:09.18 | 13:34.13 | 225693 | 286755
Track 1
Filename C:\EAC rips\01 - South Central L.A. Kulture.wav
Pre-gap length 0:00:02.00
Peak level 98.8 %
Extraction speed 1.3 X
Track quality 100.0 %
Test CRC AEE12001
Copy CRC AEE12001
Accurately ripped (confidence 4) [1AC2BF8E] (AR v2)
Copy OK
Track 2
Filename C:\EAC rips\02 - Angela Davis.wav
Peak level 98.8 %
Extraction speed 1.7 X
Track quality 100.0 %
Test CRC B5CC8246
Copy CRC B5CC8246
Accurately ripped (confidence 4) [19461CA9] (AR v2)
Copy OK
Track 3
Filename C:\EAC rips\03 - Organic.wav
Pre-gap length 0:00:04.61
Peak level 98.8 %
Extraction speed 2.1 X
Track quality 100.0 %
Test CRC A3C3B25C
Copy CRC A3C3B25C
Accurately ripped (confidence 4) [30EEFF30] (AR v2)
Copy OK
Track 4
Filename C:\EAC rips\04 - Joy - Spiritual Fire - Joy.wav
Pre-gap length 0:00:01.12
Peak level 98.8 %
Extraction speed 2.4 X
Track quality 100.0 %
Test CRC D9EA9882
Copy CRC D9EA9882
Accurately ripped (confidence 4) [4E2A79C5] (AR v2)
Copy OK
All tracks accurately ripped
No errors occurred
End of status report
---- CUETools DB Plugin V2.1.4
[CTDB TOCID: bHZtNu12rZIkd1CUICj1QbJRdu4-] found
Submit result: already submitted
Track | CTDB Status
1 | (2/2) Accurately ripped
2 | (2/2) Accurately ripped
3 | (2/2) Accurately ripped
4 | (2/2) Accurately ripped
==== Log checksum 3443F82079D193C0B9AD5F5AA0289DEA6A4C0E0C042250E3360C10A0C17AFFFC ====
 
Содержание индексной карты (.CUE)
 
Disc 1
REM GENRE Jazz
REM DATE 2009
REM DISCID 2F0D1405
REM COMMENT "ExactAudioCopy v1.0b3"
CATALOG 0457750290230
PERFORMER "Wadada Leo Smith's Golden Quintet"
TITLE "Spritual Dimensions (Disc 1)"
FILE "01 - Al-Shadhili's Litany of the Sea - Sunrise.wav" WAVE
TRACK 01 AUDIO
TITLE "Al-Shadhili's Litany of the Sea: Sunrise"
PERFORMER "Wadada Leo Smith's Golden Quintet"
ISRC US9350929001
INDEX 01 00:00:00
TRACK 02 AUDIO
TITLE "Pacifica"
PERFORMER "Wadada Leo Smith's Golden Quintet"
ISRC US9350929002
INDEX 00 12:57:41
FILE "02 - Pacifica.wav" WAVE
INDEX 01 00:00:00
TRACK 03 AUDIO
TITLE "Umar at the Dome of the Rock, parts 1 & 2"
PERFORMER "Wadada Leo Smith's Golden Quintet"
ISRC US9350929003
INDEX 00 05:49:06
FILE "03 - Umar at the Dome of the Rock, parts 1 & 2.wav" WAVE
INDEX 01 00:00:00
TRACK 04 AUDIO
TITLE "Crossing Sirat"
PERFORMER "Wadada Leo Smith's Golden Quintet"
ISRC US9350929004
INDEX 00 14:52:30
FILE "04 - Crossing Sirat.wav" WAVE
INDEX 01 00:00:00
TRACK 05 AUDIO
TITLE "South Central L.A. Kulture"
PERFORMER "Wadada Leo Smith's Golden Quintet"
ISRC US9350929005
INDEX 00 06:21:40
FILE "05 - South Central L.A. Kulture.wav" WAVE
INDEX 01 00:00:00
 
Disc 2
REM GENRE Jazz
REM DATE 2009
REM DISCID 2A0EEF04
REM COMMENT "ExactAudioCopy v1.0b3"
CATALOG 0457750290230
PERFORMER "Wadada Leo Smith's Organic"
TITLE "Spiritual Dimensions (Disc 2)"
FILE "01 - South Central L.A. Kulture.wav" WAVE
TRACK 01 AUDIO
TITLE "South Central L.A. Kulture"
PERFORMER "Wadada Leo Smith's Organic"
ISRC US9350929101
INDEX 01 00:00:00
FILE "02 - Angela Davis.wav" WAVE
TRACK 02 AUDIO
TITLE "Angela Davis"
PERFORMER "Wadada Leo Smith's Organic"
ISRC US9350929102
INDEX 01 00:00:00
TRACK 03 AUDIO
TITLE "Organic"
PERFORMER "Wadada Leo Smith's Organic"
ISRC US9350929103
INDEX 00 19:18:22
FILE "03 - Organic.wav" WAVE
INDEX 01 00:00:00
TRACK 04 AUDIO
TITLE "Joy: Spiritual Fire: Joy"
PERFORMER "Wadada Leo Smith's Organic"
ISRC US9350929104
INDEX 00 18:07:72
FILE "04 - Joy - Spiritual Fire - Joy.wav" WAVE
INDEX 01 00:00:00
Any questions -> support@pro-jazz.com. По всем вопросам пишите -> support@pro-jazz.com
19:56
158
Нет комментариев. Ваш будет первым!