Поиск

(free-jazz, avantgarde) Last Exit (Brotzmann / Laswell / Sharrock / Jackson) - Koln - 1986, FLAC (image + .cue), lossless

Треклист:
Last Exit (Brotzmann / Laswell / Sharrock / Jackson) - Koln
Страна: USA / Germany
Жанр: free-jazz, avantgarde
Год выпуска: 1986
Формат: FLAC (image + .cue)
Битрейт аудио: lossless
Продолжительность: 38.03
Трэклист:
1. Hard School
2. Brain Damage
3. Taking a Beating
4. Last Call
5. Dark Heart
Доп. информация: Peter Brötzmann, tenor saxophone
Sonny Sharrock, guitar
Bill Laswell, 6 string bass
Shannon Jackson, drums/voice
очень свирепый диск. злой, жесткий, жестокий, бронебойный..
 
Отчет EAC
Exact Audio Copy V0.99 prebeta 4 from 23. January 2008
Отчёт EAC об извлечении, выполненном 15. мая 2008, 19:17
Last Exit / Koln
Дисковод: Optiarc DVD RW AD-7170A Adapter: 0 ID: 1
Режим чтения : Достоверность
Использование точного потока : Да
Отключение кэша аудио : Да
Использование указателей C2 : Нет
Коррекция смещения при чтении : 48
Способность читать области Lead-in и Lead-out : Нет
Заполнение пропущенных сэмплов тишиной : Да
Удаление блоков с тишиной в начале и конце : Нет
При вычислениях CRC использовались нулевые сэмплы : Нет
Интерфейс : Встроенный Win32-интерфейс для Win NT/2000
Выходной формат : Пользовательский кодировщик
Выбранный битрейт : 768 kBit/s
Качество : Высокий
Добавление ID3-тэга : Нет
Утилита сжатия : C:\Program Files\Exact Audio Copy\FLAC\FLAC.EXE
Дополнительные параметры : -6 -V -T "ARTIST=%a" -T "TITLE=%t" -T "ALBUM=%g" -T "DATE=%y" -T "TRACKNUMBER=%n" -T "GENRE=%m" -T "COMMENT=%e" %s -o %d
TOC извлечённого CD
Трек | Старт | Длительность | Начальный сектор | Конечный сектор
---------------------------------------------------------------------
1 | 0:00.00 | 18:28.15 | 0 | 83114
2 | 18:28.15 | 6:04.70 | 83115 | 110484
3 | 24:33.10 | 2:50.52 | 110485 | 123286
4 | 27:23.62 | 4:17.03 | 123287 | 142564
5 | 31:40.65 | 6:21.60 | 142565 | 171199
Характеристики диапазона извлечения и сообщения об ошибках
Выбранный диапазон
Имя файла C:\Music\Last Exit - Kцln.wav
Пиковый уровень 100.0 %
Качество диапазона 100.0 %
CRC копии 4CD5BF61
Копирование... OK
Ошибок не произошло
AccurateRip: сводка
Трек 1 нет в базе данных
Трек 2 нет в базе данных
Трек 3 нет в базе данных
Трек 4 нет в базе данных
Трек 5 нет в базе данных
Ни одного трека нет в базе AccurateRip
Конец отчёта
Приватный:
Нет (DHT включён)
Размер:
238.27 Мб (249,847,880 байт) » файлов: 3
Участники:
0 раздают, 0 качают (0 участников всего)
Внешние участники:
1 раздают, 0 качают (1 участников всего) [ Обновить ]
No seeders - write a personal message to user M0p94ok. Нет сидеров - пишите личное сообщение пользователю M0p94ok.
01:10
59
Нет комментариев. Ваш будет первым!