Поиск

(free-jazz, avantgarde) Peter Brotzmann & Bill Laswell - Lowlife - 1987, FLAC (image + .cue), lossless

(free-jazz, avantgarde) Peter Brotzmann & Bill Laswell - Lowlife - 1987, FLAC (image + .cue), lossless
Треклист:
Peter Brotzmann & Bill Laswell - Lowlife
Страна: USA / Germany
Жанр: free-jazz, avantgarde
Год выпуска: 1987
Формат: FLAC (image + .cue)
Битрейт аудио: lossless
Продолжительность: 41:01
Трэклист:
01 Death Rattle 4:28
02 Low Life 3:33
03 Disengage 3:02
04 Locomotive 3:43
05 Barrier 4:09
06 Wheeling Vultures 3:53
07 Curved Dog 1:34
08 Abasement 1:40
09 Land One 8:10
10 Tingle Hairs 4:14
11 The Last Detective 2:33
Доп. информация: Low Life: Peter Brötzmann (bass sax), Bill Laswell (electric basses).
 
Отчет EAC
Exact Audio Copy V0.99 prebeta 4 from 23. January 2008
Отчёт EAC об извлечении, выполненном 15. мая 2008, 18:27
Peter Brotzmann & Bill Laswell / Lowlife
Дисковод: Optiarc DVD RW AD-7170A Adapter: 0 ID: 1
Режим чтения : Достоверность
Использование точного потока : Да
Отключение кэша аудио : Да
Использование указателей C2 : Нет
Коррекция смещения при чтении : 48
Способность читать области Lead-in и Lead-out : Нет
Заполнение пропущенных сэмплов тишиной : Да
Удаление блоков с тишиной в начале и конце : Нет
При вычислениях CRC использовались нулевые сэмплы : Нет
Интерфейс : Встроенный Win32-интерфейс для Win NT/2000
Выходной формат : Пользовательский кодировщик
Выбранный битрейт : 768 kBit/s
Качество : Высокий
Добавление ID3-тэга : Нет
Утилита сжатия : C:\Program Files\Exact Audio Copy\FLAC\FLAC.EXE
Дополнительные параметры : -6 -V -T "ARTIST=%a" -T "TITLE=%t" -T "ALBUM=%g" -T "DATE=%y" -T "TRACKNUMBER=%n" -T "GENRE=%m" -T "COMMENT=%e" %s -o %d
TOC извлечённого CD
Трек | Старт | Длительность | Начальный сектор | Конечный сектор
---------------------------------------------------------------------
1 | 0:00.00 | 4:29.40 | 0 | 20214
2 | 4:29.40 | 3:33.17 | 20215 | 36206
3 | 8:02.57 | 3:01.63 | 36207 | 49844
4 | 11:04.45 | 3:43.20 | 49845 | 66589
5 | 14:47.65 | 4:09.37 | 66590 | 85301
6 | 18:57.27 | 3:52.40 | 85302 | 102741
7 | 22:49.67 | 1:34.23 | 102742 | 109814
8 | 24:24.15 | 1:39.50 | 109815 | 117289
9 | 26:03.65 | 8:10.35 | 117290 | 154074
10 | 34:14.25 | 4:13.20 | 154075 | 173069
11 | 38:27.45 | 2:33.52 | 173070 | 184596
Характеристики диапазона извлечения и сообщения об ошибках
Выбранный диапазон
Имя файла C:\Music\Peter Brцtzmann & Bill Laswell - Lowlife.wav
Пиковый уровень 89.1 %
Качество диапазона 99.9 %
CRC копии C1C53367
Копирование... OK
Ошибок не произошло
AccurateRip: сводка
Трек 1 нет в базе данных
Трек 2 нет в базе данных
Трек 3 нет в базе данных
Трек 4 нет в базе данных
Трек 5 нет в базе данных
Трек 6 нет в базе данных
Трек 7 нет в базе данных
Трек 8 нет в базе данных
Трек 9 нет в базе данных
Трек 10 нет в базе данных
Трек 11 нет в базе данных
Ни одного трека нет в базе AccurateRip
Конец отчёта
Приватный:
Нет (DHT включён)
Размер:
194.00 Мб (203,422,789 байт) » файлов: 3
Участники:
0 раздают, 0 качают (0 участников всего)
Внешние участники:
1 раздают, 0 качают (1 участников всего) [ Обновить ]
Есть вопросы - пишите личное сообщение пользователю M0p94ok.
01:09
39
Нет комментариев. Ваш будет первым!