Поиск

(free-jazz) Peter Brotzmann Octet - Machine Gun - 1968, FLAC (image + .cue), lossless

(free-jazz) Peter Brotzmann Octet - Machine Gun - 1968, FLAC (image + .cue), lossless
Треклист:
Peter Brotzmann Octet - Machine Gun
Страна: Germany
Жанр: free-jazz
Год выпуска: 1968
Формат: FLAC (image + .cue)
Битрейт аудио: lossless
Продолжительность: 61.56
Трэклист:
1. Machine Gun second take
2. Machine Gun third take
3. Responsible (for Jan Van De Ven) first take
4. Responsible (for Jan Van De Ven) second take
5. Music For Han Bennink I
Доп. информация: Peter Brotzmann - tenor & baritone sax
Willem Breuker - tenor sax & bass-clarinet
Evan Parker - tenor sax
Fred Van Hove - piano
Peter Kowald - bass
Buschi Niebergall - bass
Han Bennink - drums
Sven-Ake Johansson - drums
 
Отчет EAC
Exact Audio Copy V0.99 prebeta 4 from 23. January 2008
Отчёт EAC об извлечении, выполненном 15. мая 2008, 20:56
The Peter Brotzmann Octet / Machine Gun
Дисковод: Optiarc DVD RW AD-7170A Adapter: 0 ID: 1
Режим чтения : Достоверность
Использование точного потока : Да
Отключение кэша аудио : Да
Использование указателей C2 : Нет
Коррекция смещения при чтении : 48
Способность читать области Lead-in и Lead-out : Нет
Заполнение пропущенных сэмплов тишиной : Да
Удаление блоков с тишиной в начале и конце : Нет
При вычислениях CRC использовались нулевые сэмплы : Нет
Интерфейс : Встроенный Win32-интерфейс для Win NT/2000
Выходной формат : Пользовательский кодировщик
Выбранный битрейт : 768 kBit/s
Качество : Высокий
Добавление ID3-тэга : Нет
Утилита сжатия : C:\Program Files\Exact Audio Copy\FLAC\FLAC.EXE
Дополнительные параметры : -6 -V -T "ARTIST=%a" -T "TITLE=%t" -T "ALBUM=%g" -T "DATE=%y" -T "TRACKNUMBER=%n" -T "GENRE=%m" -T "COMMENT=%e" %s -o %d
TOC извлечённого CD
Трек | Старт | Длительность | Начальный сектор | Конечный сектор
---------------------------------------------------------------------
1 | 0:00.00 | 14:58.52 | 0 | 67401
2 | 14:58.52 | 17:16.15 | 67402 | 145116
3 | 32:14.67 | 10:01.10 | 145117 | 190201
4 | 42:16.02 | 8:17.13 | 190202 | 227489
5 | 50:33.15 | 11:22.65 | 227490 | 278704
Характеристики диапазона извлечения и сообщения об ошибках
Выбранный диапазон
Имя файла C:\Music\The Peter Brцtzmann Octet - Machine Gun.wav
Пиковый уровень 94.2 %
Качество диапазона 99.9 %
CRC копии 35B8A1FB
Копирование... OK
Ошибок не произошло
AccurateRip: сводка
Трек 1 точность не определена (достоверность 1) [6DD95AFF], AccurateRip вернул [1249F09C]
Трек 2 точность не определена (достоверность 1) [2856614E], AccurateRip вернул [0AA82288]
Трек 3 точность не определена (достоверность 1) [966D61F4], AccurateRip вернул [E5A93723]
Трек 4 точность не определена (достоверность 1) [5B594B50], AccurateRip вернул [9866E427]
Трек 5 точность не определена (достоверность 1) [3B151A37], AccurateRip вернул [2C2BF0EA]
Ни один трек не прошёл проверки на точность
В вашей базе может быть иной вариант штамповки диска
Конец отчёта
Приватный:
Нет (DHT включён)
Размер:
381.91 Мб (400,465,043 байт) » файлов: 3
Участники:
0 раздают, 0 качают (0 участников всего)
Внешние участники:
7 раздают, 2 качают (9 участников всего) [ Обновить ]
Есть вопросы - пишите личное сообщение пользователю M0p94ok.
01:11
61
Нет комментариев. Ваш будет первым!