Вы используете незарегистрированную версию компонента "Вкладки"!

Поиск

(Free Jazz, Avant-Garde) The Vandermark 5 (Dave Rempis, Jeb Bishop, Kent Kessler, Tim Mulvenna) - Free Jazz Classics, Vols. 1 & 2 (2CD) {Atavistic ALP137CD, USA} - 2002, FLAC (tracks+.cue) lossless

(Free Jazz, Avant-Garde) The Vandermark 5 (Dave Rempis, Jeb Bishop, Kent Kessler, Tim Mulvenna) - Free Jazz Classics, Vols. 1 & 2 (2CD) {Atavistic ALP137CD, USA} - 2002, FLAC (tracks+.cue) lossless
Треклист:
The Vandermark 5 - Free Jazz Classics, Vols. 1 & 2 (2CD)
Жанр: Free Jazz, Avant-Garde
Страна-производитель диска: USA
Год издания диска: 2002
Издатель (лейбл): Atavistic
Номер по каталогу: ALP137CD
Аудио кодек: FLAC (*.flac)
Тип рипа: tracks+.cue
Битрейт аудио: lossless
Продолжительность: 02:04:24 (01:03:06 & 01:01:18)
Источник (релизер): mishka1981
Наличие сканов в содержимом раздачи: да
Треклист:
Vol. 1
1. Happy House (Ornette Coleman) [11:46]
2. 69L (Anthony Braxton) [6:46]
3. Conquistador Part 2 (Cecil Taylor) [7:42]
4. Goodbye Tom B. (Joe McPhee) [7:19]
5. Saturn (Sun Ra) [6:55]
6. Gazzelloni (Eric Dolphy) [7:31]
7. New York Is Full of Lonely People (Lester Bowie) [15:06]
Recorded Live at The Empty Bottle, Chicago, Spring 2000
Vol. 2
1. Wherever Junebugs Go (Archie Shepp) [11:44]
2. King Korn / Calls (Carla Bley) [9:05]
3. The Earth / Jerry The Moon (Frank Wright) [12:30]
4. Scootin' About (Jimmy Giuffre) [7:05]
5. C.M.E. / G Song (Julius Hemphill) [10:21]
6. There Is The Bomb (Don Cherry) [10:29]
Recorded Live at The Empty Bottle, Chicago, Spring 2001
Personnel:
The Vandermark 5:
Jeb Bishop - trombone
Kent Kessler - bass
Tim Mulvenna - drums
Dave Rempis - alto & tenor sax
Ken Vandermark - tenor sax, Bb & bass clarinet
 
Лог создания рипа (EAC Log) - Vol. 1
Exact Audio Copy V1.0 beta 1 from 15. November 2010
EAC extraction logfile from 3. November 2011, 14:52
The Vandermark 5 / Free Jazz Classics Vol. 1
Used drive : TSSTcorpCDDVDW TS-L633A Adapter: 3 ID: 0
Read mode : Secure
Utilize accurate stream : Yes
Defeat audio cache : Yes
Make use of C2 pointers : No
Read offset correction : 6
Overread into Lead-In and Lead-Out : No
Fill up missing offset samples with silence : Yes
Delete leading and trailing silent blocks : No
Null samples used in CRC calculations : Yes
Used interface : Installed external ASPI interface
Gap handling : Appended to previous track
Used output format : User Defined Encoder
Selected bitrate : 896 kBit/s
Quality : High
Add ID3 tag : No
Command line compressor : C:\Program Files\Exact Audio Copy\FLAC\FLAC.EXE
Additional command line options : -8 -V -T "ARTIST=%a" -T "TITLE=%t" -T "ALBUM=%g" -T "DATE=%y" -T "TRACKNUMBER=%n" -T "TOTALTRACKS=%x" -T "GENRE=%m" -T "ALBUMARTIST=%v" -T "ALBUM ARTIST=%v" -T "COMMENT=EAC Secure Mode, Test & Copy, AccurateRip, FLAC -8" %s
TOC of the extracted CD
Track | Start | Length | Start sector | End sector
---------------------------------------------------------
1 | 0:00.00 | 11:46.36 | 0 | 52985
2 | 11:46.36 | 6:45.54 | 52986 | 83414
3 | 18:32.15 | 7:42.13 | 83415 | 118077
4 | 26:14.28 | 7:19.00 | 118078 | 151002
5 | 33:33.28 | 6:55.01 | 151003 | 182128
6 | 40:28.29 | 7:31.10 | 182129 | 215963
7 | 47:59.39 | 15:06.50 | 215964 | 283963
Track 1
Filename C:\MY RIPS\01 - Happy House (Ornette Coleman).wav
Pre-gap length 0:00:02.00
Peak level 99.2 %
Extraction speed 1.3 X
Track quality 100.0 %
Test CRC AAFEA1DB
Copy CRC AAFEA1DB
Cannot be verified as accurate (confidence 3) [0DC31111], AccurateRip returned [20BA820F]
Copy OK
Track 2
Filename C:\MY RIPS\02 - 69L (Anthony Braxton).wav
Pre-gap length 0:00:03.00
Peak level 99.4 %
Extraction speed 1.5 X
Track quality 100.0 %
Test CRC BFF9DCBD
Copy CRC BFF9DCBD
Cannot be verified as accurate (confidence 3) [622AB120], AccurateRip returned [25937C64]
Copy OK
Track 3
Filename C:\MY RIPS\03 - Conquistador Pt. 2 (Cecil Taylor).wav
Pre-gap length 0:00:03.00
Peak level 99.4 %
Extraction speed 1.6 X
Track quality 100.0 %
Test CRC 2DDDC572
Copy CRC 2DDDC572
Cannot be verified as accurate (confidence 3) [D212A9D5], AccurateRip returned [A446C5CB]
Copy OK
Track 4
Filename C:\MY RIPS\04 - Goodbye Tom B. (Joe McPhee).wav
Pre-gap length 0:00:03.00
Peak level 98.6 %
Extraction speed 1.5 X
Track quality 99.9 %
Test CRC 85F2E89E
Copy CRC 85F2E89E
Cannot be verified as accurate (confidence 3) [1175D816], AccurateRip returned [89C87992]
Copy OK
Track 5
Filename C:\MY RIPS\05 - Saturn (Sun Ra).wav
Pre-gap length 0:00:03.00
Peak level 99.4 %
Extraction speed 1.9 X
Track quality 100.0 %
Test CRC 8BF3C3DE
Copy CRC 8BF3C3DE
Cannot be verified as accurate (confidence 3) [1BA2FA1D], AccurateRip returned [C54CA2E7]
Copy OK
Track 6
Filename C:\MY RIPS\06 - Gazzelloni (Eric Dolphy).wav
Pre-gap length 0:00:03.00
Peak level 99.4 %
Extraction speed 2.0 X
Track quality 100.0 %
Test CRC 40838A0E
Copy CRC 40838A0E
Cannot be verified as accurate (confidence 3) [21B2DEAE], AccurateRip returned [62E817C7]
Copy OK
Track 7
Filename C:\MY RIPS\07 - New York Is Full Of Lonely People (Lester Bowie).wav
Pre-gap length 0:00:03.00
Peak level 99.4 %
Extraction speed 2.3 X
Track quality 100.0 %
Test CRC 464844C0
Copy CRC 464844C0
Cannot be verified as accurate (confidence 3) [E3CD82FA], AccurateRip returned [56360C3B]
Copy OK
No tracks could be verified as accurate
You may have a different pressing from the one(s) in the database
No errors occurred
End of status report
==== Log checksum D7FAC1DB5F51FB2EC8F27D394007C81985BE36483A5F155ECEABE81337123DA0 ====
 
Содержание индексной карты (.CUE) - Vol. 1
REM GENRE Jazz
REM DATE 2000
REM DISCID 4F0ECA07
REM COMMENT "ExactAudioCopy v1.0b1"
PERFORMER "The Vandermark 5"
TITLE "Free Jazz Classics Vol. 1"
FILE "01 - Happy House (Ornette Coleman).wav" WAVE
TRACK 01 AUDIO
TITLE "Happy House (Ornette Coleman)"
PERFORMER "The Vandermark 5"
FLAGS DCP
INDEX 01 00:00:00
TRACK 02 AUDIO
TITLE "69L (Anthony Braxton)"
PERFORMER "The Vandermark 5"
FLAGS DCP
INDEX 00 11:43:36
FILE "02 - 69L (Anthony Braxton).wav" WAVE
INDEX 01 00:00:00
TRACK 03 AUDIO
TITLE "Conquistador Pt. 2 (Cecil Taylor)"
PERFORMER "The Vandermark 5"
FLAGS DCP
INDEX 00 06:42:54
FILE "03 - Conquistador Pt. 2 (Cecil Taylor).wav" WAVE
INDEX 01 00:00:00
TRACK 04 AUDIO
TITLE "Goodbye Tom B. (Joe McPhee)"
PERFORMER "The Vandermark 5"
FLAGS DCP
INDEX 00 07:39:13
FILE "04 - Goodbye Tom B. (Joe McPhee).wav" WAVE
INDEX 01 00:00:00
TRACK 05 AUDIO
TITLE "Saturn (Sun Ra)"
PERFORMER "The Vandermark 5"
FLAGS DCP
INDEX 00 07:16:00
FILE "05 - Saturn (Sun Ra).wav" WAVE
INDEX 01 00:00:00
TRACK 06 AUDIO
TITLE "Gazzelloni (Eric Dolphy)"
PERFORMER "The Vandermark 5"
FLAGS DCP
INDEX 00 06:52:01
FILE "06 - Gazzelloni (Eric Dolphy).wav" WAVE
INDEX 01 00:00:00
TRACK 07 AUDIO
TITLE "New York Is Full Of Lonely People (Lester Bowie)"
PERFORMER "The Vandermark 5"
FLAGS DCP
INDEX 00 07:28:10
FILE "07 - New York Is Full Of Lonely People (Lester Bowie).wav" WAVE
INDEX 01 00:00:00
 
Лог создания рипа (EAC Log) - Vol. 2
Exact Audio Copy V1.0 beta 1 from 15. November 2010
EAC extraction logfile from 3. November 2011, 16:17
The Vandermark 5 / Free Jazz Classics Vol 2
Used drive : TSSTcorpCDDVDW TS-L633A Adapter: 3 ID: 0
Read mode : Secure
Utilize accurate stream : Yes
Defeat audio cache : Yes
Make use of C2 pointers : No
Read offset correction : 6
Overread into Lead-In and Lead-Out : No
Fill up missing offset samples with silence : Yes
Delete leading and trailing silent blocks : No
Null samples used in CRC calculations : Yes
Used interface : Installed external ASPI interface
Gap handling : Appended to previous track
Used output format : User Defined Encoder
Selected bitrate : 896 kBit/s
Quality : High
Add ID3 tag : No
Command line compressor : C:\Program Files\Exact Audio Copy\FLAC\FLAC.EXE
Additional command line options : -8 -V -T "ARTIST=%a" -T "TITLE=%t" -T "ALBUM=%g" -T "DATE=%y" -T "TRACKNUMBER=%n" -T "TOTALTRACKS=%x" -T "GENRE=%m" -T "ALBUMARTIST=%v" -T "ALBUM ARTIST=%v" -T "COMMENT=EAC Secure Mode, Test & Copy, AccurateRip, FLAC -8" %s
TOC of the extracted CD
Track | Start | Length | Start sector | End sector
---------------------------------------------------------
1 | 0:00.00 | 11:44.56 | 0 | 52855
2 | 11:44.56 | 9:05.47 | 52856 | 93777
3 | 20:50.28 | 12:30.68 | 93778 | 150095
4 | 33:21.21 | 7:05.74 | 150096 | 182044
5 | 40:27.20 | 10:21.36 | 182045 | 228655
6 | 50:48.56 | 10:29.70 | 228656 | 275900
Track 1
Filename C:\MY RIPS\01 - Wherever June Bugs Go (Archie Shepp).wav
Pre-gap length 0:00:02.00
Peak level 98.8 %
Extraction speed 1.3 X
Track quality 100.0 %
Test CRC 6CA53E52
Copy CRC 6CA53E52
Cannot be verified as accurate (confidence 3) [4CC1C93D], AccurateRip returned [86427693]
Copy OK
Track 2
Filename C:\MY RIPS\02 - King Korn,Calls (Carla Bley).wav
Pre-gap length 0:00:03.00
Peak level 97.5 %
Extraction speed 1.5 X
Track quality 100.0 %
Test CRC E0FA881C
Copy CRC E0FA881C
Cannot be verified as accurate (confidence 3) [9C93BBFE], AccurateRip returned [490DBFCB]
Copy OK
Track 3
Filename C:\MY RIPS\03 - The Earth,Jerry (Frank Wright).wav
Pre-gap length 0:00:03.00
Peak level 99.8 %
Extraction speed 1.8 X
Track quality 100.0 %
Test CRC C5568D26
Copy CRC C5568D26
Cannot be verified as accurate (confidence 3) [9261F9BC], AccurateRip returned [7A01C2CF]
Copy OK
Track 4
Filename C:\MY RIPS\04 - Scootin' About (Jimmy Guiffre).wav
Pre-gap length 0:00:03.00
Peak level 94.6 %
Extraction speed 1.9 X
Track quality 100.0 %
Test CRC 7EBDCC5A
Copy CRC 7EBDCC5A
Cannot be verified as accurate (confidence 3) [0BAA0D8A], AccurateRip returned [15EDDA43]
Copy OK
Track 5
Filename C:\MY RIPS\05 - C.M.E.,G. Song (Julius Hemphill).wav
Pre-gap length 0:00:03.00
Peak level 96.5 %
Extraction speed 2.0 X
Track quality 100.0 %
Test CRC B6E9D91C
Copy CRC B6E9D91C
Cannot be verified as accurate (confidence 3) [D23571FD], AccurateRip returned [1458224B]
Copy OK
Track 6
Filename C:\MY RIPS\06 - There Is The Bomb (Don Cherry).wav
Pre-gap length 0:00:03.00
Peak level 99.1 %
Extraction speed 1.9 X
Track quality 99.9 %
Test CRC D90F5450
Copy CRC D90F5450
Cannot be verified as accurate (confidence 3) [6B50F8F4], AccurateRip returned [3C654470]
Copy OK
No tracks could be verified as accurate
You may have a different pressing from the one(s) in the database
No errors occurred
End of status report
==== Log checksum 86F1499492EC2C040CDBB0903A31028F872C5687195E4968198DAB920DFC034E ====
 
Содержание индексной карты (.CUE) - Vol. 2
REM GENRE Jazz
REM DATE 2001
REM DISCID 370E5E06
REM COMMENT "ExactAudioCopy v1.0b1"
PERFORMER "The Vandermark 5"
TITLE "Free Jazz Classics Vol 2"
FILE "01 - Wherever June Bugs Go (Archie Shepp).wav" WAVE
TRACK 01 AUDIO
TITLE "Wherever June Bugs Go (Archie Shepp)"
PERFORMER "The Vandermark 5"
FLAGS DCP
INDEX 01 00:00:00
TRACK 02 AUDIO
TITLE "King Korn/Calls (Carla Bley)"
PERFORMER "The Vandermark 5"
FLAGS DCP
INDEX 00 11:41:56
FILE "02 - King Korn,Calls (Carla Bley).wav" WAVE
INDEX 01 00:00:00
TRACK 03 AUDIO
TITLE "The Earth/Jerry (Frank Wright)"
PERFORMER "The Vandermark 5"
FLAGS DCP
INDEX 00 09:02:47
FILE "03 - The Earth,Jerry (Frank Wright).wav" WAVE
INDEX 01 00:00:00
TRACK 04 AUDIO
TITLE "Scootin' About (Jimmy Guiffre)"
PERFORMER "The Vandermark 5"
FLAGS DCP
INDEX 00 12:27:68
FILE "04 - Scootin' About (Jimmy Guiffre).wav" WAVE
INDEX 01 00:00:00
TRACK 05 AUDIO
TITLE "C.M.E./G. Song (Julius Hemphill)"
PERFORMER "The Vandermark 5"
FLAGS DCP
INDEX 00 07:02:74
FILE "05 - C.M.E.,G. Song (Julius Hemphill).wav" WAVE
INDEX 01 00:00:00
TRACK 06 AUDIO
TITLE "There Is The Bomb (Don Cherry)"
PERFORMER "The Vandermark 5"
FLAGS DCP
INDEX 00 10:18:36
FILE "06 - There Is The Bomb (Don Cherry).wav" WAVE
INDEX 01 00:00:00
 
Об исполнителе (группе)
Vandermark 5
The Vandermark 5 was formed during the spring of 1996. Since that time it has been a major outlet for the compositional and improvisational ideas of Ken Vandermark, whose thinking has been developed through years of work with groups like the NRG Ensemble, AALY, the Peter Brötzmann Chicago Tentet, the Free Music Ensemble, School Days, Free Fall, and the Territory Band.
Trying to organize a small unit with the capabilities of a large ensemble, he needed and chose four exceptional musicians to join him on the project: Jeb Bishop: trombone/ guitar, Kent Kessler: bass, Tim Mulvenna: drums, and Mars Williams: saxophone. During the past decade the quintet’s line-up has evolved and now, in addition to original members Vandermark and Kessler, it includes the extraordinary saxophonist Dave Rempis; Tim Daisy and his powerful work on percussion; and the cello/improvisation master Fred Lonberg-Holm.
Each of the current members has years of performance experience working with a wide variety of music. This, coupled with the range of instrumentation and stylistic potential held by the ensemble, allows Vandermark to compose material that runs the gamut of musical possibilities; he incorporates elements of jazz history, contemporary composition, funk and rock into the group’s music. Even so, the band’s focus remains on improvisation. Each piece is arranged to allow ample room for the members to interpret and reinterpret the writing; this creates an environment where they are constantly interacting and utilizing their unique ideas in a spontaneous way.
In the spirit of the great bands scattered throughout the history of jazz, the Vandermark 5 has concentrated on live performance as the means to hone its skills and develop its concepts. For several years the quintet played on a weekly basis at the Empty Bottle in Chicago. Now the ensemble has shifted their concert schedule to focus on the road, and they tour in North America and Europe on a regular basis.
Their most recent work included a trip to Europe in November of 2006 to support the release of its newest album, A Discontinuous Line. After this, the band recorded a new set of material that will be released by Atavistic in the coming year. In February of 2007 the quintet will tour in the United States and Canada, performing music developed in the year and a half since Lonberg-Holm joined the group in the summer of 2005. Despite its longevity this musical unit continues to develop, while creating new methods for the investigation of composition and improvisation. With their history together and the current possibilities at their disposal, the Vandermark 5 will clearly remain “a modern-day band for the jazz ages.” —Penguin Guide To Jazz on CD.
 
Atavistic
Free Jazz Classics Vols. 1 & 2
Vandermark 5
Chicago’s broadest shoulders present a nice-price double-cd reissue of their very sought-after and critically acclaimed Free Jazz Classics discs.
Originally issued as limited edition bonus discs with the V5’s last two albums Burn The Incline (ALP121CD)& Acoustic Machine (ALP128CD), jazz legends Ornette Coleman, Cecil Taylor, Archie Shepp, Carla Bley, Joe McPhee, Lester Bowie, Eric Dolphy, Anthony Braxton, Sun Ra, Frank Wright, Jimmy Guiffre, Julius Hemphill & Don Cherry get paid their due respect- as only The Vandermark 5 can.
“In 1999, when The Vandermark 5 was preparing to record Burn The Incline, Kurt Kellison of Atavistic approached me with the idea of pressing the first thousand copies of the album as a double cd including live versions of the compostitions as a "bonus disk." The idea sounded great, but there had already been two limited edition cds of live Vandermark 5 material already released on Malachi Ritscher's Savage Sound Syndicate so I was interested in doing something different for Burn The Incline. I decided to record a series of "free jazz" compositions by some of the great composers of the 1960s. Up until this point in time the quintet had only performed and recorded my material; investigating the work of composers that had influenced and inspired me by writing arrangements of their work specifically for the band was a new challenge that I hoped would bring out aspects of the group's playing that hadn't been discovered before.
Kurt's promotional idea quickly proved to be a good one: the first thousand copies of Burn The Incline sold faster than any of our previous recordings. When it came time to put together the next album, Acoustic Machine, it seemed like a good idea to do a follow up and Free Jazz Classics Volume 2 was put together. While on the road touring I kept running into fans who had wanted to get a copy of these limited editions of both Burn The Incline and Acoustic Machine, but weren't able to get a hold of them before the pressing ran out. Putting the two volumes together on this double cd is an attempt to get the music to the people who wanted to hear it before and couldn't.”
- Ken Vandermark, from the road June 2002
 
Back
По всем вопросам пишите личное сообщение пользователю M0p94ok.
18:15
162
Нет комментариев. Ваш будет первым!