Вы используете незарегистрированную версию компонента "Вкладки"!

Поиск

(Free Improvisation, Avant-Garde Jazz) Room (Larry Ochs, Chris Brown, William Winant, Scot Gresham-Lancaster) - Hall of Mirrors - 1992, FLAC (image+.cue), lossless

(Free Improvisation, Avant-Garde Jazz) Room (Larry Ochs, Chris Brown, William Winant, Scot Gresham-Lancaster) - Hall of Mirrors - 1992, FLAC (image+.cue), lossless
Треклист:
Room / Hall of Mirrors
Жанр: Free Improvisation, Avant-Garde Jazz
Страна-производитель диска: US
Год издания диска: 1992
Издатель (лейбл): Music & Arts
Номер по каталогу: 700
Аудиокодек: FLAC (*.flac)
Тип рипа: image+.cue
Битрейт аудио: lossless
Продолжительность: 57:43
Источник (релизер): CD
Наличие сканов в содержимом раздачи: нет
Треклист:
1 Three to Two Brown 5:43
2 Still Dance Ochs 23:08
3 Wavelength Room 6:16
4 Hall of Mirrors Brown 22:34
 
Лог создания рипа
Exact Audio Copy V1.0 beta 2 from 29. April 2011
EAC extraction logfile from 6. November 2011, 10:07
Room / Hall of Mirrors
Used drive : Optiarc DVD RW AD-7170A Adapter: 0 ID: 0
Read mode : Secure
Utilize accurate stream : Yes
Defeat audio cache : Yes
Make use of C2 pointers : No
Read offset correction : 48
Overread into Lead-In and Lead-Out : No
Fill up missing offset samples with silence : Yes
Delete leading and trailing silent blocks : No
Null samples used in CRC calculations : Yes
Used interface : Native Win32 interface for Win NT & 2000
Used output format : User Defined Encoder
Selected bitrate : 320 kBit/s
Quality : High
Add ID3 tag : No
Command line compressor : C:\Program Files\Exact Audio Copy\Flac\flac.exe
Additional command line options : -V -8 -T "Date=%year%" -T "Genre=%genre%" %source%
TOC of the extracted CD
Track | Start | Length | Start sector | End sector
---------------------------------------------------------
1 | 0:00.00 | 5:43.23 | 0 | 25747
2 | 5:43.23 | 23:08.55 | 25748 | 129902
3 | 28:52.03 | 6:16.72 | 129903 | 158174
4 | 35:09.00 | 22:34.08 | 158175 | 259732
Range status and errors
Selected range
Filename C:\EAC\Downloads\Room - Hall of Mirrors.wav
Peak level 100.0 %
Extraction speed 2.0 X
Range quality 99.9 %
Test CRC 9B6B7456
Copy CRC 9B6B7456
Copy OK
No errors occurred
AccurateRip summary
Track 1 not present in database
Track 2 not present in database
Track 3 not present in database
Track 4 not present in database
None of the tracks are present in the AccurateRip database
End of status report
==== Log checksum 5891FB2F2A7183D05E404E2925EC693951A5F61750A4A97AFEEBFA1B669C24D6 ====
 
Содержание индексной карты (.CUE)
REM GENRE Jazz
REM DATE 1991
REM DISCID 220D8704
REM COMMENT "ExactAudioCopy v1.0b2"
PERFORMER "Room"
TITLE "Hall of Mirrors"
FILE "Room - Hall of Mirrors.flac" WAVE
TRACK 01 AUDIO
TITLE "Three to Two"
PERFORMER "Room"
INDEX 01 00:00:00
TRACK 02 AUDIO
TITLE "Still Dance"
PERFORMER "Room"
INDEX 00 05:37:23
INDEX 01 05:43:23
TRACK 03 AUDIO
TITLE "Wavelength"
PERFORMER "Room"
INDEX 00 28:42:05
INDEX 01 28:52:03
TRACK 04 AUDIO
TITLE "Hall of Mirrors"
PERFORMER "Room"
INDEX 00 35:01:70
INDEX 01 35:09:00
Доп. информация: Recording Date: Aug 1990 - May 16, 1991
 
Об альбоме (сборнике)
Room is a Bay-Area quartet comprised of Rova's Larry Ochs on saxophone, vibes and percussionist William Winant, pianist and electronic design freak Chris Brown, and computer whiz Scot Gresham-Lancaster. Recorded between California and Holland in 1990 and 1991, this is one of more curious artifacts ever released by Music & Arts. In one sense it is free jazz, and in another it's new music and improv, and in another it's strictly improvisation based on cues -- like a Zorn game piece, almost. But then, it's also none of them entirely. Given the presence of plenty of electronic gizmos, the listener could not be blamed for assuming the worst. But the electronic elements here are painterly and structural more than actual instruments. Ochs is all over this thing, building slowly evolving lines that are shaped percussively and rounded harmonically by Winant's vibes. There are only four tracks on the record, two by Brown, one by Ochs, and a group improvisation, and one gets the impression that there is, despite the apparent embrace of free improvisation, a kind of musical formalism at work. There is an order to the way dynamics are created and the way tonal investigation is breached. Themes appear and disappear, particularly in Ochs' "Still Dancer," which is over 22 minutes in length. Small intervals assert themselves in the center of seemingly spontaneously erected harmonic frames, but then slip off into the ether when the machines do turnarounds with a sound, a series of white noise washes, or a small blip. It gets weird, and yet, like the soundtrack to a Dashiel Hammet novel, it is unmistakably, undeniably compelling and hypnotic. This is what experimental music is supposed to be about, going somewhere -- though you might not know where -- with a few like-minded individuals who agree to check each other if they get too far off the beaten musical path. Bravo -- wave your freak flags high! Hall of Mirrors is musical nerd chic taken to a whole other level.
 
Состав
Chris Brown Keyboards, Percussion, Piano
Scot Gresham-Lancaster Computers, Electronic Sounds, Electronics
Larry Ochs Sax (Soprano), Sax (Tenor)
William Winant Percussion, Vibraphone
По всем вопросам пишите личное сообщение пользователю M0p94ok.
18:14
202
Нет комментариев. Ваш будет первым!