Поиск

(Avant-Garde Jazz) Kaspar Ewalds Exorbitantes Kabinett - Ritter - 2010, FLAC (image+.cue), lossless

(Avant-Garde Jazz) Kaspar Ewalds Exorbitantes Kabinett - Ritter - 2010, FLAC (image+.cue), lossless
Треклист:
Kaspar Ewalds Exorbitantes Kabinett / Ritter
Жанр: Avant-Garde Jazz
Страна-производитель диска: Russia
Год издания диска: 2010
Издатель (лейбл): российское издание по лицензии Altrisuoni
Номер по каталогу: AS264
Страна: Switzerland
Аудиокодек: FLAC (*.flac)
Тип рипа: image+.cue
Битрейт аудио: lossless
Продолжительность: 71:19
Источник (релизер): собственный рип
Наличие сканов в содержимом раздачи: нет
Треклист:
01 - Der Grüne Ritter
02 - Tintagel
03 - Trimetrisches Ballet
04 - Le Chevalier de la Charette
05 - Balin/Balan
06 - Urlicht
07 - Tafelrunde
08 - Knax
 
Лог создания рипа
Exact Audio Copy V1.0 beta 2 from 29. April 2011
EAC extraction logfile from 6. November 2011, 23:07
Kaspar Ewalds Exorbitantes Kabinett / Ritter
Used drive : HL-DT-STDVD-RAM GH22NS30 Adapter: 1 ID: 1
Read mode : Secure
Utilize accurate stream : Yes
Defeat audio cache : Yes
Make use of C2 pointers : No
Read offset correction : 102
Overread into Lead-In and Lead-Out : No
Fill up missing offset samples with silence : Yes
Delete leading and trailing silent blocks : No
Null samples used in CRC calculations : Yes
Used interface : Installed external ASPI interface
Used output format : Internal WAV Routines
Sample format : 44.100 Hz; 16 Bit; Stereo
TOC of the extracted CD
Track | Start | Length | Start sector | End sector
---------------------------------------------------------
1 | 0:00.00 | 4:25.46 | 0 | 19920
2 | 4:25.46 | 11:57.53 | 19921 | 73748
3 | 16:23.24 | 10:49.31 | 73749 | 122454
4 | 27:12.55 | 9:10.25 | 122455 | 163729
5 | 36:23.05 | 9:43.14 | 163730 | 207468
6 | 46:06.19 | 3:54.53 | 207469 | 225071
7 | 50:00.72 | 15:31.11 | 225072 | 294907
8 | 65:32.08 | 5:47.54 | 294908 | 320986
Range status and errors
Selected range
Filename C:\mp3\Kaspar Ewalds Exorbitantes Kabinett - Ritter.wav
Peak level 98.8 %
Extraction speed 2.8 X
Range quality 99.9 %
Copy CRC 100BF2DB
Copy OK
No errors occurred
AccurateRip summary
Track 1 not present in database
Track 2 not present in database
Track 3 not present in database
Track 4 not present in database
Track 5 not present in database
Track 6 not present in database
Track 7 not present in database
Track 8 not present in database
None of the tracks are present in the AccurateRip database
End of status report
 
Лог проверки качества
AUDIOCHECKER v2.0 beta (build 457) - by Dester - opdester@freemail.hu
~~~~~~~~~~~~~~~~~~~~~~~~~~~~~~~~~~
Started at: вторник, 08. 11. 2011. - 11:55.21
1 file found
1 -===- G:\_torrents_\Kaspar Ewalds Exorbitantes Kabinett - 2009 - Ritter [FLAC]\Kaspar Ewalds Exorbitantes Kabinett - Ritter.flac
Extracted successfully
Conclusion: this track is CDDA with probability 100%
Tempfile successfully deleted.
Finished at: вторник, 08. 11. 2011. - 12:03.48 (operation time: 0:08.26)
 
Скриншот спектра частот
Доп. информация: В начале ноября 2011 года состоялся российский тур этого оркестра. В программе были (точная цитата) «некоторые дурацкие идеи из техно-музыки, плюс 35-тактные гармонические последовательности, выстроенные на секциях по 5 или 7 шестнадцатых нот, а также обработанный швейцарский гимн, баллада о прекрасной ночи и посвящение королю Артуру».
Официальный сайт
 
Об исполнителе (группе)
Репертуар KEEK - прихотливая и самобытная смесь классического джазового биг-бэндового звучания, киномузыки, неоклассики и порой даже drum'n'bass. В состав оркестра собраны первоклассные музыканты из джазовой и классической среды, которых объединяет интерес к расширению границ современных музыкальных жанров. Говоря о своих композиторских принципах, Эвальд упоминает полиритмию и «ломаные» сольные партии: «Я люблю писать в манере, которую называю «broken voicing», с явным дисбалансом между группами инструментов». Когда его спрашивают, готов ли он исполнять со своим ансамблем стандарты, Эвальд без колебаний отвечает: «Запросто. «Весна священная» Стравинского, например, - чем не стандарт?». Упоминание этого имени неслучайно: наиболее важными для себя фигурами в музыке Каспар считает как раз Стравинского и… Джеймса Брауна.
 
Об альбоме (сборнике)
Оркестром записаны три альбома - «Räuber» («Грабитель», 2003), «Reptil» («Рептилия», 2006) и «Ritter» («Рыцарь», 2010). Они составляют своеобразную трилогию и объединены общей концепцией «традиционной сказки», как это называет сам Эвальд. «Я стараюсь, чтобы альбом был по своей сути чем-то вроде единой сюиты, - говорит Каспар, - Мне нравится, когда между отдельными пьесами есть определённые взаимосвязи, некие невидимые нити, как у Софокла или у Хичкока, выбирайте, кто вам больше нравится… Для меня главным источником вдохновения является как раз не музыка, а другие области искусства, особенно - театр и кинематография».
 
Состав
Regula Schneider - вокал, кларнет;
Roland von Flüe - соло-саксофон;
Beat Hofstetter - сопрано-саксофон;
Sascha Armbruster - альт-саксофон;
Andrea Formenti - тенор-саксофон;
Beat Kappeler - баритон-саксофон;
Lukas Thöni - рожок, первая труба;
Daniel Woodtli - рожок, соло-труба;
Heiner Krause - охотничьи рожки;
Bernhard Bamert - рожок, тромбон;
Jan Schreiner - рожок, бас-тромбон;
Philip Henzi - клавишные, клавесин;
Wolfgang Zwiauer - бас-гитара;
Gregor Hilbe - ударные;
Andy Neresheim - звукорежиссура;
Kaspar Ewald - композиция.
По всем вопросам пишите личное сообщение пользователю M0p94ok.
18:16
259
Нет комментариев. Ваш будет первым!