Вы используете незарегистрированную версию компонента "Вкладки"!

Поиск

(free jazz, avant-garde) Talking Pictures and Jorrit Dijkstra - Humming 2000, FLAC (tracks+.cue), lossless

Треклист:


Talking Pictures and Jorrit Dijkstra - Humming 2000

Жанр:free jazz, avant-garde
Год выпуска: 2000
Формат: FLAC (tracks+.cue)
Битрейт аудио: lossless
Продолжительность 55`56
Источник: what.cd
Bill Clark (trumpet);
Ron Samworth (guitar, producer, electronics);
Dylan Van Der Schyff (drums, eletronics);
Jorrit Dijkstra (alto sax)
Recorded at Blue Wave, Vancouver, British Columbia on July 4, 5, & 10, 2000.
2000, Songlines Recordings

tracks
Curve Belt
Humming
Scarab/Plant/XJ
Later
Barcode
Deaf Cat Lane
Call Me In A Minute


 
auCDtect:
auCDtect: CD records authenticity detector, version 0.8.2
Copyright (c) 2004 Oleg Berngardt. All rights reserved.
Copyright (c) 2004 Alexander Djourik. All rights reserved.
------------------------------------------------------------
Processing file: [01 - Curve Belt.wav]
------------------------------------------------------------
This track looks like CDDA with probability 100%
------------------------------------------------------------
Processing file: [02 - Humming.wav]
------------------------------------------------------------
This track looks like CDDA with probability 100%
------------------------------------------------------------
Processing file: [03 - Scarab.wav]
------------------------------------------------------------
This track looks like CDDA with probability 99%
------------------------------------------------------------
Processing file: [04 - Plant.wav]
------------------------------------------------------------
This track looks like CDDA with probability 100%
------------------------------------------------------------
Processing file: [05 - XJ.wav]
------------------------------------------------------------
This track looks like CDDA with probability 99%
------------------------------------------------------------
Processing file: [06 - Later.wav]
------------------------------------------------------------
This track looks like CDDA with probability 100%
------------------------------------------------------------
Processing file: [07 - Barcode.wav]
------------------------------------------------------------
This track looks like CDDA with probability 100%
------------------------------------------------------------
Processing file: [08 - Deaf Cat Lane.wav]
------------------------------------------------------------
This track looks like CDDA with probability 100%
------------------------------------------------------------
Processing file: [09 - Call Me In A Minute.wav]
------------------------------------------------------------
This track looks like CDDA with probability 100%
------------------------------------------------------------
Final Conclusion:
------------------------------------------------------------
These tracks looks like CDDA with probability 100%
 
.cue
REM GENRE Jazz
REM DATE 2000
REM COMMENT From Vancouver and Amsterdam, two centers of creative music that have forged many links in recent years, comes this ongoing collaboration between guitarist Ron Samworth's quartet, acclaimed as one of Canada's finest modern jazz units, and Dutch saxophonist Jorrit Dijkstra. Talking Pictures responds to Dijkstra's hummable melodies with unusual empathy and a playful sense of adventure all their own. This lyrical, tough, dreamlike set integrates live electronic processing with jazz and improvisation.
PERFORMER "Talking Pictures & Jorrit Dijkstra"
TITLE "Humming"
FILE "01 - Curve Belt.flac" WAVE
TRACK 01 AUDIO
TITLE "Curve Belt"
PERFORMER "Talking Pictures & Jorrit Dijkstra"
INDEX 01 00:00:00
FILE "02 - Humming.flac" WAVE
TRACK 02 AUDIO
TITLE "Humming"
PERFORMER "Talking Pictures & Jorrit Dijkstra"
INDEX 01 00:00:00
FILE "03 - Scarab.flac" WAVE
TRACK 03 AUDIO
TITLE "Scarab"
PERFORMER "Talking Pictures & Jorrit Dijkstra"
INDEX 01 00:00:00
FILE "04 - Plant.flac" WAVE
TRACK 04 AUDIO
TITLE "Plant"
PERFORMER "Talking Pictures & Jorrit Dijkstra"
INDEX 01 00:00:00
FILE "05 - XJ.flac" WAVE
TRACK 05 AUDIO
TITLE "XJ"
PERFORMER "Talking Pictures & Jorrit Dijkstra"
INDEX 01 00:00:00
FILE "06 - Later.flac" WAVE
TRACK 06 AUDIO
TITLE "Later"
PERFORMER "Talking Pictures & Jorrit Dijkstra"
INDEX 01 00:00:00
FILE "07 - Barcode.flac" WAVE
TRACK 07 AUDIO
TITLE "Barcode"
PERFORMER "Talking Pictures & Jorrit Dijkstra"
INDEX 01 00:00:00
FILE "08 - Deaf Cat Lane.flac" WAVE
TRACK 08 AUDIO
TITLE "Deaf Cat Lane"
PERFORMER "Talking Pictures & Jorrit Dijkstra"
INDEX 01 00:00:00
FILE "09 - Call Me In A Minute.flac" WAVE
TRACK 09 AUDIO
TITLE "Call Me in a Minute"
PERFORMER "Talking Pictures & Jorrit Dijkstra"
INDEX 01 00:00:00

другие релизы
Any questions -> support@pro-jazz.com. По всем вопросам пишите -> support@pro-jazz.com
02:07
155
Нет комментариев. Ваш будет первым!