Вы используете незарегистрированную версию компонента "Вкладки"!

Поиск

(Free Jazz, Avant-Garde Jazz, Big Band) ICP Orchestra - The ICP Orchestra Performs Nichols - Monk - 1988, FLAC (tracks+.cue), lossless

Треклист:
ICP Orchestra / The ICP Orchestra Performs Nichols - Monk
Жанр: Free Jazz, Avant-Garde Jazz, Big Band
Страна-производитель диска: Netherlands
Год издания: 1988
Издатель (лейбл): Instant Composers Pool
Номер по каталогу: icp 026
Страна: Netherlands
Аудиокодек: FLAC (*.flac)
Тип рипа: tracks+.cue
Битрейт аудио: lossless
Продолжительность: 72:21
Источник (релизер): waffles.fm
Наличие сканов в содержимом раздачи: да
Треклист:
Monk Program
1 Four In One 4:26
2 Epistrophy 4:04
3 Round Midnight 5:11
4 Hornin' In 3:23
5 52+ 6:27
6 Mysterioso 7:29
7 Criss Cross 4:59
Nichols Program
8 Houseparty Starting 7:49
9 Change Of Season 5:01
10 2300 Skidoo 7:01
11 Spinning Song 4:38
12 Hangover Triangle 5:58
13 Step Tempest 4:42
 
Лог создания рипа
Exact Audio Copy V0.99 prebeta 5 from 4. May 2009
EAC extraction logfile from 21. March 2010, 16:39
The ICP Orchestra / Performs Monk - Nichols
Used drive : ATAPI iHAP322 9 Adapter: 5 ID: 1
Read mode : Secure
Utilize accurate stream : Yes
Defeat audio cache : No
Make use of C2 pointers : No
Read offset correction : 6
Overread into Lead-In and Lead-Out : No
Fill up missing offset samples with silence : Yes
Delete leading and trailing silent blocks : No
Null samples used in CRC calculations : No
Used interface : Native Win32 interface for Win NT & 2000
Gap handling : Not detected, thus appended to previous track
Used output format : User Defined Encoder
Selected bitrate : 768 kBit/s
Quality : High
Add ID3 tag : No
Command line compressor : C:\Program Files\Exact Audio Copy\FLAC\FLAC.EXE
Additional command line options : -6 -V -T "ARTIST=%a" -T "TITLE=%t" -T "ALBUM=%g" -T "DATE=%y" -T "TRACKNUMBER=%n" -T "GENRE=%m" -T "COMMENT=%e" %s -o %d
TOC of the extracted CD
Track | Start | Length | Start sector | End sector
---------------------------------------------------------
1 | 0:00.00 | 4:29.35 | 0 | 20209
2 | 4:29.35 | 4:07.20 | 20210 | 38754
3 | 8:36.55 | 5:13.65 | 38755 | 62294
4 | 13:50.45 | 3:27.00 | 62295 | 77819
5 | 17:17.45 | 6:52.50 | 77820 | 108769
6 | 24:10.20 | 7:35.37 | 108770 | 142931
7 | 31:45.57 | 5:03.03 | 142932 | 165659
8 | 36:48.60 | 7:53.10 | 165660 | 201144
9 | 44:41.70 | 5:05.30 | 201145 | 224049
10 | 49:47.25 | 7:05.00 | 224050 | 255924
11 | 56:52.25 | 4:43.47 | 255925 | 277196
12 | 61:35.72 | 6:01.63 | 277197 | 304334
13 | 67:37.60 | 4:43.30 | 304335 | 325589
Track 1
Filename M:\Music\Ripped\Jazz\The ICP Orchestra - Performs Monk - Nichols (1988)\01 - Four In One.wav
Peak level 100.0 %
Track quality 100.0 %
Copy CRC 7A7808FA
Accurately ripped (confidence 3) [7B5E4738]
Copy OK
Track 2
Filename M:\Music\Ripped\Jazz\The ICP Orchestra - Performs Monk - Nichols (1988)\02 - Epistrophy.wav
Peak level 100.0 %
Track quality 100.0 %
Copy CRC 3886020C
Accurately ripped (confidence 3) [F7EB4E8B]
Copy OK
Track 3
Filename M:\Music\Ripped\Jazz\The ICP Orchestra - Performs Monk - Nichols (1988)\03 - Round Midnight.wav
Peak level 62.5 %
Track quality 100.0 %
Copy CRC 8213B3A4
Accurately ripped (confidence 3) [483A1849]
Copy OK
Track 4
Filename M:\Music\Ripped\Jazz\The ICP Orchestra - Performs Monk - Nichols (1988)\04 - Hornin' In.wav
Peak level 65.7 %
Track quality 100.0 %
Copy CRC CED95D18
Accurately ripped (confidence 3) [2FB57176]
Copy OK
Track 5
Filename M:\Music\Ripped\Jazz\The ICP Orchestra - Performs Monk - Nichols (1988)\05 - 52+.wav
Peak level 72.0 %
Track quality 100.0 %
Copy CRC F7131CEE
Accurately ripped (confidence 3) [1FDF2F95]
Copy OK
Track 6
Filename M:\Music\Ripped\Jazz\The ICP Orchestra - Performs Monk - Nichols (1988)\06 - Mysterioso.wav
Peak level 69.0 %
Track quality 100.0 %
Copy CRC 7D5761CD
Accurately ripped (confidence 3) [A84AB14F]
Copy OK
Track 7
Filename M:\Music\Ripped\Jazz\The ICP Orchestra - Performs Monk - Nichols (1988)\07 - Criss Cross.wav
Peak level 95.3 %
Track quality 100.0 %
Copy CRC 0146A2D5
Accurately ripped (confidence 3) [6B32C061]
Copy OK
Track 8
Filename M:\Music\Ripped\Jazz\The ICP Orchestra - Performs Monk - Nichols (1988)\08 - Houseparty Starting.wav
Peak level 100.0 %
Track quality 100.0 %
Copy CRC A5E485D9
Track not present in AccurateRip database
Copy OK
Track 9
Filename M:\Music\Ripped\Jazz\The ICP Orchestra - Performs Monk - Nichols (1988)\09 - Change Of Season.wav
Peak level 100.0 %
Track quality 100.0 %
Copy CRC 1C024DD3
Accurately ripped (confidence 2) [197676BF]
Copy OK
Track 10
Filename M:\Music\Ripped\Jazz\The ICP Orchestra - Performs Monk - Nichols (1988)\10 - 2300 Skidoo.wav
Peak level 100.0 %
Track quality 100.0 %
Copy CRC 284B9A9B
Accurately ripped (confidence 3) [EC181D88]
Copy OK
Track 11
Filename M:\Music\Ripped\Jazz\The ICP Orchestra - Performs Monk - Nichols (1988)\11 - Spinning Song.wav
Peak level 90.1 %
Track quality 99.9 %
Copy CRC 8981AB7D
Accurately ripped (confidence 2) [38EBA425]
Copy OK
Track 12
Filename M:\Music\Ripped\Jazz\The ICP Orchestra - Performs Monk - Nichols (1988)\12 - Hangover Triangle.wav
Peak level 100.0 %
Track quality 100.0 %
Copy CRC FAFB2115
Accurately ripped (confidence 3) [09EFED0C]
Copy OK
Track 13
Filename M:\Music\Ripped\Jazz\The ICP Orchestra - Performs Monk - Nichols (1988)\13 - Step Tempest.wav
Peak level 90.3 %
Track quality 100.0 %
Copy CRC 00096ABD
Accurately ripped (confidence 3) [F7F2C1FF]
Copy OK
12 track(s) accurately ripped
1 track(s) not present in the AccurateRip database
Some tracks could not be verified as accurate
No errors occurred
End of status report
 
Содержание индексной карты (.CUE)
REM GENRE Jazz
REM DATE 1988
REM DISCID BC10F50D
REM COMMENT "ExactAudioCopy v0.99pb5"
PERFORMER "The ICP Orchestra"
TITLE "Performs Monk - Nichols"
FILE "01 - Four In One.flac" WAVE
TRACK 01 AUDIO
TITLE "Four In One"
PERFORMER "The ICP Orchestra"
FLAGS PRE
INDEX 01 00:00:00
TRACK 02 AUDIO
TITLE "Epistrophy"
PERFORMER "The ICP Orchestra"
FLAGS PRE
INDEX 00 04:26:20
FILE "02 - Epistrophy.flac" WAVE
INDEX 01 00:00:00
TRACK 03 AUDIO
TITLE "Round Midnight"
PERFORMER "The ICP Orchestra"
FLAGS PRE
INDEX 00 04:05:00
FILE "03 - Round Midnight.flac" WAVE
INDEX 01 00:00:00
TRACK 04 AUDIO
TITLE "Hornin' In"
PERFORMER "The ICP Orchestra"
FLAGS PRE
INDEX 00 05:11:25
FILE "04 - Hornin' In.flac" WAVE
INDEX 01 00:00:00
TRACK 05 AUDIO
TITLE "52+"
PERFORMER "The ICP Orchestra"
FLAGS PRE
INDEX 00 03:24:55
FILE "05 - 52+.flac" WAVE
INDEX 01 00:00:00
FILE "06 - Mysterioso.flac" WAVE
TRACK 06 AUDIO
TITLE "Mysterioso"
PERFORMER "The ICP Orchestra"
FLAGS PRE
INDEX 01 00:00:00
TRACK 07 AUDIO
TITLE "Criss Cross"
PERFORMER "The ICP Orchestra"
FLAGS PRE
INDEX 00 07:31:27
FILE "07 - Criss Cross.flac" WAVE
INDEX 01 00:00:00
TRACK 08 AUDIO
TITLE "Houseparty Starting"
PERFORMER "The ICP Orchestra"
FLAGS PRE
INDEX 00 05:00:73
FILE "08 - Houseparty Starting.flac" WAVE
INDEX 01 00:00:00
TRACK 09 AUDIO
TITLE "Change Of Season"
PERFORMER "The ICP Orchestra"
FLAGS PRE
INDEX 00 07:49:45
FILE "09 - Change Of Season.flac" WAVE
INDEX 01 00:00:00
TRACK 10 AUDIO
TITLE "2300 Skidoo"
PERFORMER "The ICP Orchestra"
FLAGS PRE
INDEX 00 05:02:12
FILE "10 - 2300 Skidoo.flac" WAVE
INDEX 01 00:00:00
TRACK 11 AUDIO
TITLE "Spinning Song"
PERFORMER "The ICP Orchestra"
FLAGS PRE
INDEX 00 07:02:32
FILE "11 - Spinning Song.flac" WAVE
INDEX 01 00:00:00
TRACK 12 AUDIO
TITLE "Hangover Triangle"
PERFORMER "The ICP Orchestra"
FLAGS PRE
INDEX 00 04:38:72
FILE "12 - Hangover Triangle.flac" WAVE
INDEX 01 00:00:00
TRACK 13 AUDIO
TITLE "Step Tempest"
PERFORMER "The ICP Orchestra"
FLAGS PRE
INDEX 00 05:58:28
FILE "13 - Step Tempest.flac" WAVE
INDEX 01 00:00:00
 
Лог проверки качества
d:\>d:\aucdtect -d/-m0 d:\zzz\*.wav
auCDtect: CD records authenticity detector, version 0.8.2
Copyright (c) 2004 Oleg Berngardt. All rights reserved.
Copyright (c) 2004 Alexander Djourik. All rights reserved.
------------------------------------------------------------
Processing file: [01. Four In One.wav]
------------------------------------------------------------
This track looks like CDDA with probability 100%
------------------------------------------------------------
Processing file: [02. Epistrophy.wav]
------------------------------------------------------------
This track looks like CDDA with probability 100%
------------------------------------------------------------
Processing file: [03. Round Midnight.wav]
------------------------------------------------------------
This track looks like CDDA with probability 100%
------------------------------------------------------------
Processing file: [04. Hornin' In.wav]
------------------------------------------------------------
This track looks like CDDA with probability 100%
------------------------------------------------------------
Processing file: [05. 52+.wav]
------------------------------------------------------------
This track looks like CDDA with probability 99%
------------------------------------------------------------
Processing file: [06. Mysterioso.wav]
------------------------------------------------------------
This track looks like CDDA with probability 100%
------------------------------------------------------------
Processing file: [07. Criss Cross.wav]
------------------------------------------------------------
This track looks like CDDA with probability 100%
------------------------------------------------------------
Processing file: [08. Houseparty Starting.wav]
------------------------------------------------------------
This track looks like CDDA with probability 99%
------------------------------------------------------------
Processing file: [09. Change Of Season.wav]
------------------------------------------------------------
This track looks like CDDA with probability 100%
------------------------------------------------------------
Processing file: [10. 2300 Skidoo.wav]
------------------------------------------------------------
This track looks like CDDA with probability 100%
------------------------------------------------------------
Processing file: [11. Spinning Song.wav]
------------------------------------------------------------
This track looks like CDDA with probability 100%
------------------------------------------------------------
Processing file: [12. Hangover Triangle.wav]
------------------------------------------------------------
This track looks like CDDA with probability 99%
------------------------------------------------------------
Processing file: [13. Step Tempest.wav]
------------------------------------------------------------
This track looks like CDDA with probability 100%
------------------------------------------------------------
Final Conclusion:
------------------------------------------------------------
These tracks looks like CDDA with probability 100%
Доп. информация:
 
Recording Dates
Recording Dates:
Tracks 1 to 3 at Vredenburg, Utrecht on 27 October 1986
Track 4 at Wilhelmina, Eindhoven on 22 October 1986
Tracks 5, 6 at Firenze on 20 November 1986
Track 7 at Schlemmer, Den Haag on 10 December 1986
Track 12 at Mephisto, Rotterdam on 11 May 1984
Tracks 8 to 10, 11, 13 at Vredenburg, Utrecht on 12 May 1984
 
Состав
Alto Saxophone – Michael Moore (4), Paul Termos (tracks: 1 to 7), Sean Bergin (tracks: 1 to 7)
Cello – Ernst Reijseger
Clarinet – Michael Moore (4) (tracks: 8 to 13)
Drums – Han Bennink
Piano – Misha Mengelberg
Soprano Saxophone – Steve Lacy (tracks: 1 to 7)
Soprano Saxophone, Tenor Saxophone, Clarinet – Ab Baars (tracks: 8 to 13)
Trombone – Garret List (tracks: 1 to 7), George Lewis (tracks: 5, 6), Wolter Wierbos
Trumpet – Toon De Gouw (tracks: 1 to 7)
Tuba – Larry Fishkind (tracks: 1 to 7)
Viola – Maurice Horsthuis
Any questions -> support@pro-jazz.com. По всем вопросам пишите -> support@pro-jazz.com
02:07
166
Нет комментариев. Ваш будет первым!