Вы используете незарегистрированную версию компонента "Вкладки"!

Поиск

(Free Jazz) Shoji Hano, Gary Smith, Asahito Nanjo / Shoji Hano - 2000, FLAC (image+.cue), lossless

(Free Jazz) Shoji Hano, Gary Smith, Asahito Nanjo / Shoji Hano - 2000, FLAC (image+.cue), lossless
Треклист:
Shoji Hano, Gary Smith, Asahito Nanjo / Shoji Hano
Жанр: Free Jazz
Страна-производитель диска: UK
Год издания: 2000
Издатель (лейбл): Chronoscope
Номер по каталогу: CPE 2005-2
Аудиокодек: FLAC (*.flac)
Тип рипа: image+.cue
Битрейт аудио: lossless
Продолжительность: 51:00
Источник (релизер): CD
Наличие сканов в содержимом раздачи: да
Треклист:
1 - Sannin
2 - Futari No.3
3 - Kaze
4 - Ono No.1
5 - Futari No.1
6 - Ono No.3
7 - Futari No.2
 
Лог создания рипа
Exact Audio Copy V1.0 beta 2 from 29. April 2011
EAC extraction logfile from 28. June 2012, 10:10
Shoji Hano, Gary Smith, Asahito Nanjo / Shoji Hano
Used drive : Optiarc DVD RW AD-7240S Adapter: 2 ID: 0
Read mode : Secure
Utilize accurate stream : Yes
Defeat audio cache : Yes
Make use of C2 pointers : No
Read offset correction : 48
Overread into Lead-In and Lead-Out : No
Fill up missing offset samples with silence : Yes
Delete leading and trailing silent blocks : No
Null samples used in CRC calculations : Yes
Used interface : Installed external ASPI interface
Used output format : User Defined Encoder
Selected bitrate : 128 kBit/s
Quality : High
Add ID3 tag : No
Command line compressor : C:\Program Files\Exact Audio Copy\FLAC\FLAC.EXE
Additional command line options : -8 -V -T "ARTIST=%artist%" -T "TITLE=%title%" -T "ALBUM=%albumtitle%" -T "DATE=%year%" -T "TRACKNUMBER=%tracknr%" -T "GENRE=%genre%" -T "COMMENT=%comment%" -T "BAND=%albuminterpret%" -T "COMPOSER=%composer%" %haslyrics%--ta
TOC of the extracted CD
Track | Start | Length | Start sector | End sector
---------------------------------------------------------
1 | 0:00.00 | 7:07.05 | 0 | 32029
2 | 7:07.05 | 9:48.45 | 32030 | 76174
3 | 16:55.50 | 2:17.37 | 76175 | 86486
4 | 19:13.12 | 7:24.03 | 86487 | 119789
5 | 26:37.15 | 10:34.27 | 119790 | 167366
6 | 37:11.42 | 4:19.70 | 167367 | 186861
7 | 41:31.37 | 9:28.63 | 186862 | 229524
Range status and errors
Selected range
Filename C:\Shoji Hano, Gary Smith, Asahito Nanjo (2000) - Shoji Hano\Shoji Hano, Gary Smith, Asahito Nanjo (2000) - Shoji Hano.wav
Peak level 99.3 %
Extraction speed 3.9 X
Range quality 100.0 %
Test CRC A6CF314F
Copy CRC A6CF314F
Copy OK
No errors occurred
AccurateRip summary
Track 1 not present in database
Track 2 not present in database
Track 3 not present in database
Track 4 not present in database
Track 5 not present in database
Track 6 not present in database
Track 7 not present in database
None of the tracks are present in the AccurateRip database
End of status report
==== Log checksum 122D41F962844AE1D3E6D0AE9166874B39CA544F1F77BF1120CFACF2D688DD34 ====
 
Содержание индексной карты (.CUE)
REM GENRE Jazz
REM DATE 2000
REM DISCID 5A0BF407
REM COMMENT "ExactAudioCopy v1.0b2"
PERFORMER "Shoji Hano, Gary Smith, Asahito Nanjo"
TITLE "Shoji Hano "
FILE "Shoji Hano, Gary Smith, Asahito Nanjo (2000) - Shoji Hano.flac" WAVE
TRACK 01 AUDIO
TITLE "Sanin"
PERFORMER "Shoji Hano, Gary Smith, Asahito Nanjo"
INDEX 01 00:00:00
TRACK 02 AUDIO
TITLE "Futari #3"
PERFORMER "Shoji Hano, Gary Smith, Asahito Nanjo"
INDEX 00 07:02:20
INDEX 01 07:07:05
TRACK 03 AUDIO
TITLE "Kaze"
PERFORMER "Shoji Hano, Gary Smith, Asahito Nanjo"
INDEX 01 16:55:50
TRACK 04 AUDIO
TITLE "Ono #1"
PERFORMER "Shoji Hano, Gary Smith, Asahito Nanjo"
INDEX 01 19:13:12
TRACK 05 AUDIO
TITLE "Futari #1"
PERFORMER "Shoji Hano, Gary Smith, Asahito Nanjo"
INDEX 00 26:31:47
INDEX 01 26:37:15
TRACK 06 AUDIO
TITLE "Ono #3"
PERFORMER "Shoji Hano, Gary Smith, Asahito Nanjo"
INDEX 00 37:06:72
INDEX 01 37:11:42
TRACK 07 AUDIO
TITLE "Futari #2"
PERFORMER "Shoji Hano, Gary Smith, Asahito Nanjo"
INDEX 00 41:29:05
INDEX 01 41:31:37
 
Доп. информация
Recorded: Moat Studios, London on 9th Nov. 1998
 
Об альбоме (сборнике)
Ever since the days of Cream and the Jimi Hendrix Experience, electric guitar/bass guitar/drums trios have primarily been vehicles for rock music. They are comparatively rare in jazz, and rarer in free improvised music. Those that do exist often blur the boundaries with rock, using its vocabulary but not its syntax or vice versa. Because of its rock legacy, the format itself attracts players who have affinities with rock. One such recent trio, Mass, (with albums on Paratactile, Mass and From Zero ) is a precursor of this Shoji Hano trio and has clear affinities with it. Both trios feature Gary Smith on guitar and his is the primary voice here. Given the distinctiveness of Smith's playing, it could not be otherwise. His playing dominates any grouping he is in. With musical roots in the blues-rock of Clapton and Beck, Smith is well-versed in the conventions of rock, allowing him to mutate and subvert them. But compared to his solo or duo work, his playing here is more linear and focussed on the overall group ethic. Nonetheless, devotees of Smith's guitar will find all the trademarks of his playing here, the electric edge, the curved notes, the swirling, shimmering runs, the illusion of several guitarists playing simultaneously. As the notional leader of the trio, Shoji Hano deserves full credit for its impact and straddling of boundaries. Despite his impeccable jazz and improv credentials, Hano is willing and able to provide a backbeat whenever Smith is playing something akin to rock, enhancing any rock tendencies rather than countering them. (In this, he resembles Lou Ciccotelli, the drummer in Mass.) At other times, Hano provides a rhythmic tattoo that drives the music along, making compelling listening. With five of the seven tracks being "Ono Nos. 1 & 3" and "Futari Nos. 1, 2 & 3," one might expect considerable repetition here. This is not pronounced. For instance, the two versions of "Ono" do have similar openings, but thereafter are totally different, and the three versions of? Futari? have few similarities. This isnotan album that has been padded with alternate takes! Ultimately, this music is beyond categorisation and should appeal to a wide audience. It can be listened to at different levels. It is the sort of music that can "just be there" without causing undue offence. It also handsomely repays repeated close attention and study. ~ john eyles, allaboutjazz.com
The Japanese underground can boast a few of its own mighty power trios, not a million miles away in their approach Alchemysts. The percussionist Shoji Hano has served time in one of them, High Rise, but on his eponymous album, alongside the British guitarist Gary Smith and High Rise bassist Asahito Nanjo, he uses the format as a launch pad into ear-splitting improvisations that have more in common with the German free-jazz saxophonist Peter Brötzmann than any conventional rock motifs. ~ stewart lee, sunday times
 
Состав
Shoji Hano - percussion, voice
Gary Smith - stereo guitar
Asahito Nanjo - bass guitar
Any questions -> support@pro-jazz.com. По всем вопросам пишите -> support@pro-jazz.com
02:08
175
Нет комментариев. Ваш будет первым!