Поиск

(Free Jazz, Avant-Garde) Peter Brotzmann - More Nipples - 1969, FLAC (image + .cue), lossless

(Free Jazz, Avant-Garde) Peter Brotzmann - More Nipples - 1969, FLAC (image + .cue), lossless
Треклист:
Peter Brotzmann - More Nipples
Страна: USA
Жанр: Free Jazz, Avant-Garde
Год выпуска: 1969
Формат: FLAC (image + .cue)
Битрейт аудио: lossless
Трэклист:
Peter Brotzmann - More Nipples

01. More Nipples 17:25
02. Fiddle-Faddle 13:22
03. Fat Man Walks 09:25
Доп. информация: Могучий бородач Peter Brotzmann сотоварищи. А в числе этих самых сотоварищей имена, от которых в зобу дыхание спирает у всякого любителя фри-джаза, авангарда и современной импровизации. Судите сами:
Peter Brotzmann - saxes
Evan Parker - saxes
Derek Bailey - guitar
Fred Van Hove - piano
Buschi Niebergall - bass
Han Bennink - drums
Как команда? По мне так очень не слабая . Ну а если учесть что альбом записан и выпущен в далеком 1969 году... Короче, это надо слушать!
Рип с CD-R. Сканов не имею.
 
Отчет ЕАС
Exact Audio Copy V0.99 prebeta 3 from 28. July 2007
Отчёт EAC об извлечении, выполненном 27. ноября 2007, 14:26
Peter Brotzmann / More Nipples
Дисковод: PLEXTOR DVDR PX-755A Adapter: 2 ID: 0
Режим чтения : Достоверность
Использование точного потока : Да
Отключение кэша аудио : Да
Использование указателей C2 : Нет
Комбинированное смещение чтения/записи : 0
Способность читать области Lead-in и Lead-out : Нет
Заполнение пропущенных сэмплов тишиной : Да
Удаление блоков с тишиной в начале и конце : Нет
При вычислениях CRC использовались нулевые сэмплы : Нет
Интерфейс : Установленный внешний ASPI-интерфейс
Выходной формат : Внутренние WAV-операции
Формат сэмплов : 44.100 Гц; 16 бит; стерео
TOC извлечённого CD
Трек | Старт | Длительность | Начальный сектор | Конечный сектор
---------------------------------------------------------------------
1 | 0:00.00 | 17:25.63 | 0 | 78437
2 | 17:25.63 | 13:22.00 | 78438 | 138587
3 | 30:47.63 | 9:25.20 | 138588 | 180982
Характеристики диапазона извлечения и сообщения об ошибках
Выбранный диапазон
Имя файла D:\Мои документы\Моя музыка\APE\Peter Brotzmann - More Nipples\Peter Brotzmann - More Nipples.wav
Пиковый уровень 98.0 %
Качество диапазона 99.9 %
CRC копии 1973B044
Копирование... OK
Ошибок не произошло
Конец отчёта
 
TauAnalyzer
Приватный:
Нет (DHT включён)
Размер:
252.24 Мб (264,490,452 байт) » файлов: 3
Участники:
0 раздают, 0 качают (0 участников всего)
Внешние участники:
1 раздают, 0 качают (1 участников всего) [ Обновить ]
Есть вопросы - пишите личное сообщение пользователю M0p94ok.
22:56
83
Нет комментариев. Ваш будет первым!