Поиск

(Trombone) Ray Anderson Pocket Brass Band - Where Home is - 1999, APE (image + .cue), lossless

(Trombone) Ray Anderson Pocket Brass Band - Where Home is - 1999, APE (image + .cue), lossless
Треклист:
Ray Anderson Pocket Brass Band - Where Home is
Страна: USA
Жанр: Trombone
Год выпуска: 1999
Формат: APE (image + .cue)
Битрейт аудио: lossless
Продолжительность: 61:09
Трэклист:
1 Bimwa Swing - Anderson 9:22
2 The Alligatory Abagua - Anderson 11:03
3 The Mooche - Ellington, Mills 10:26
4 I Mean You - Hawkins, Monk 5:15
5 Where Home Is - Anderson 5:01
6 Peace in Our Time - Anderson 9:08
7 The Pineapple Rag - Joplin 10:45
8 Empty Track 0:06
Доп. информация:
Ray Anderson Trombone
Matt Perrine Sousaphone
Bobby Previte Drums
Lew Soloff Trumpet
"If I ever had a home, It was a slide trombone. Especially in a brass band."
Таким образом сей альбом анотировал сам автор.
Не отнять, не прибавить!
Слушайте этот маленький диксиленд а-ля Новый Орлеан.
Ну а потом сами решайте как определить этот жанр.
Я просто очень люблю тромбон и попытаюсь выложить своиx фаворитов.
Bones#1.
Кому интересно, вот здесь ещё один интересный тромбонист
Bones#2: Craig Harris & Tailgators Tale - Blackout in the Square Root of Soul - 1988
http://rutracker.org/forum/viewtopic.php?t=523824
 
log
Exact Audio Copy V0.99 prebeta 3 from 28. July 2007
EAC extraction logfile from 24. November 2007, 21:48
Ray Anderson Pocket Brass Band / Where Home is
Used drive : HL-DT-STDVDRAM GSA-4165B Adapter: 1 ID: 0
Read mode : Secure
Utilize accurate stream : Yes
Defeat audio cache : Yes
Make use of C2 pointers : No
Read offset correction : 667
Overread into Lead-In and Lead-Out : No
Fill up missing offset samples with silence : Yes
Delete leading and trailing silent blocks : No
Null samples used in CRC calculations : No
Used interface : Native Win32 interface for Win NT & 2000
Used output format : Internal WAV Routines
Sample format : 44.100 Hz; 16 Bit; Stereo
TOC of the extracted CD
Track | Start | Length | Start sector | End sector
---------------------------------------------------------
1 | 0:00.00 | 9:22.50 | 0 | 42199
2 | 9:22.50 | 11:03.50 | 42200 | 91974
3 | 20:26.25 | 10:26.17 | 91975 | 138941
4 | 30:52.42 | 5:15.10 | 138942 | 162576
5 | 36:07.52 | 5:01.13 | 162577 | 185164
6 | 41:08.65 | 9:08.07 | 185165 | 226271
7 | 50:16.72 | 10:45.43 | 226272 | 274689
8 | 61:02.40 | 0:06.67 | 274690 | 275206
Range status and errors
Selected range
Filename C:\Family_Folder\Torrent\0_My_Music\Ray Anderson Pocket Brass Band - Where Home is (1999) - Bones#1\Ray Anderson Pocket Brass Band - Where Home is.wav
Peak level 99.7 %
Range quality 100.0 %
Copy CRC B447B068
Copy OK
No errors occurred
AccurateRip summary
Track 1 not present in database
Track 2 not present in database
Track 3 not present in database
Track 4 not present in database
Track 5 not present in database
Track 6 not present in database
Track 7 not present in database
Track 8 not present in database
None of the tracks are present in the AccurateRip database
End of status report
Ну в завершение как всегда - коментарии более чем прИветствуются.
P.S. 8-ой трэк не значится на диске, он пустой на 6 секунд, оставил его как рипнулось.
Приватный:
Нет (DHT включён)
Размер:
348.75 Мб (365,690,123 байт) » файлов: 2
Участники:
0 раздают, 0 качают (0 участников всего)
Внешние участники:
1 раздают, 0 качают (1 участников всего) [ Обновить ]
Есть вопросы - пишите личное сообщение пользователю M0p94ok.
22:55
76
Нет комментариев. Ваш будет первым!