Поиск

(Trombone) Craig Harris & Tailgators Tale - Blackout in the Square Root of Soul - 1988, FLAC (tracks), lossless

(Trombone) Craig Harris & Tailgators Tale - Blackout in the Square Root of Soul - 1988, FLAC (tracks), lossless
Треклист:
Craig Harris and Tailgaters Tales - Blackout in the Square Root of Soul
Страна: USA
Жанр: Trombone
Год выпуска: 1988
Формат: FLAC (tracks)
Битрейт аудио: lossless
Продолжительность: 39:39
Трэклист:
1 Blackout in the Square Root of Soul - Harris 10:00
2 Phase I/Phase II/Generations - Harris 4:02
3 Free 1 - Harris 7:17
4 Love Joy - Harris 6:07
5 Blues Dues - Harris 2:30
6 Dingo - Harris 4:57
7 Awakening Ancestors - Harris 5:25
Доп. информация:
 
Оригинальная обложка
 
log
Exact Audio Copy V0.99 prebeta 3 from 28. July 2007
EAC extraction logfile from 30. November 2007, 15:17
Craig Harris and Tailgator's Tale / Blackout in the square root of soul
Used drive : HL-DT-STDVD-ROM GDR8163B Adapter: 1 ID: 1
Read mode : Secure
Utilize accurate stream : Yes
Defeat audio cache : Yes
Make use of C2 pointers : Yes
Combined read/write offset correction : 0
Overread into Lead-In and Lead-Out : No
Fill up missing offset samples with silence : Yes
Delete leading and trailing silent blocks : No
Null samples used in CRC calculations : No
Used interface : Native Win32 interface for Win NT & 2000
Gap handling : Appended to previous track
Used output format : User Defined Encoder
Selected bitrate : 768 kBit/s
Quality : High
Add ID3 tag : No
Command line compressor : C:\Program Files\Exact Audio Copy\FLAC\FLAC.EXE
Additional command line options : -6 -V -T "ARTIST=%a" -T "TITLE=%t" -T "ALBUM=%g" -T "DATE=%y" -T "TRACKNUMBER=%n" -T "GENRE=%m" -T "COMMENT=%e" %s -o %d
TOC of the extracted CD
Track | Start | Length | Start sector | End sector
---------------------------------------------------------
1 | 0:00.00 | 10:00.72 | 0 | 45071
2 | 10:00.72 | 4:02.00 | 45072 | 63221
3 | 14:02.72 | 7:17.03 | 63222 | 95999
4 | 21:20.00 | 6:07.72 | 96000 | 123596
5 | 27:27.72 | 2:30.20 | 123597 | 134866
6 | 29:58.17 | 4:57.73 | 134867 | 157214
7 | 34:56.15 | 5:25.70 | 157215 | 181659
Track 1
Filename C:\Family_Folder\Torrent\0_My_Music\Craig Harris and Tailgator's Tale - Blackout in the square root of soul (1987) - Bones#2\Craig Harris and Tailgator's Tale-01Blackout in the square root of soul.wav
Pre-gap length 0:00:02.00
Peak level 97.1 %
Track quality 100.0 %
Copy CRC 57F3ECF7
Copy OK
Track 2
Filename C:\Family_Folder\Torrent\0_My_Music\Craig Harris and Tailgator's Tale - Blackout in the square root of soul (1987) - Bones#2\Craig Harris and Tailgator's Tale-02Generations.wav
Pre-gap length 0:00:03.45
Peak level 96.9 %
Track quality 100.0 %
Copy CRC DDF8F496
Copy OK
Track 3
Filename C:\Family_Folder\Torrent\0_My_Music\Craig Harris and Tailgator's Tale - Blackout in the square root of soul (1987) - Bones#2\Craig Harris and Tailgator's Tale-03Free I.wav
Pre-gap length 0:00:03.32
Peak level 96.9 %
Track quality 100.0 %
Copy CRC 78E50C51
Copy OK
Track 4
Filename C:\Family_Folder\Torrent\0_My_Music\Craig Harris and Tailgator's Tale - Blackout in the square root of soul (1987) - Bones#2\Craig Harris and Tailgator's Tale-04Love joy.wav
Pre-gap length 0:00:03.63
Peak level 97.3 %
Track quality 100.0 %
Copy CRC DD4F5A63
Copy OK
Track 5
Filename C:\Family_Folder\Torrent\0_My_Music\Craig Harris and Tailgator's Tale - Blackout in the square root of soul (1987) - Bones#2\Craig Harris and Tailgator's Tale-05Blues dues.wav
Pre-gap length 0:00:03.35
Peak level 97.2 %
Track quality 100.0 %
Copy CRC 8568EC94
Copy OK
Track 6
Filename C:\Family_Folder\Torrent\0_My_Music\Craig Harris and Tailgator's Tale - Blackout in the square root of soul (1987) - Bones#2\Craig Harris and Tailgator's Tale-06Dingo.wav
Pre-gap length 0:00:01.52
Peak level 97.4 %
Track quality 100.0 %
Copy CRC 9118B654
Copy OK
Track 7
Filename C:\Family_Folder\Torrent\0_My_Music\Craig Harris and Tailgator's Tale - Blackout in the square root of soul (1987) - Bones#2\Craig Harris and Tailgator's Tale-07Awakening ancestors.wav
Pre-gap length 0:00:02.65
Peak level 96.9 %
Track quality 100.0 %
Copy CRC 1ED4EFF5
Copy OK
No errors occurred
End of status report
Craig Harris прославился благодаря участию в безчисленных проектах David Murray и Henry Threadgill.
Там его тромбон всегда задавал тон.
В сольной же карьере, он двинул несколько в другом направлении.
Данный альбом изначально вышел на JMT Stefan F. Winter (1988), а потом был переиздан в серии 81 на его же Winter&Winter (2002)
Музыка полна музыкальных нюансов и изысков, что возможно говорит о ней меньше всего
Musicians
Craig Harris: trombone, did-geridoo, vocals;
Eddie E. J. Allen: trumpet;
Don Byron: clarinet, baritone saxophone;
Anthony Cox: bass;
Ralph Peterson Jr.: drums;
Special guests:
Jean-Paul Bourelly: guitar;
Clyde Criner: keyboards
Bones#2.
Ну в завершение как всегда - коментарии более чем прИветствуются.
P.S. Диск рипнут с оригинала (как обычно без обложек).
Попытаюсь продолжить тему любимых тромбонистов.
Приватный:
Нет (DHT включён)
Размер:
219.42 Мб (230,081,651 байт) » файлов: 7
Участники:
0 раздают, 0 качают (0 участников всего)
Внешние участники:
2 раздают, 1 качают (3 участников всего) [ Обновить ]
Есть вопросы - пишите личное сообщение пользователю M0p94ok.
22:57
65
Нет комментариев. Ваш будет первым!