Вы используете незарегистрированную версию компонента "Вкладки"!

Поиск

(Free Jazz, Avant-Garde) Matthew Shipp, Sabir Mateen - SAMA - 2010, FLAC (tracks+.cue) lossless

Треклист:
Matthew Shipp, Sabir Mateen / SAMA
Жанр: Free Jazz, Avante Garde
Год издания диска: 2010
Издатель (лейбл): Not Two Records
Номер по каталогу: MW 817-2
Аудио кодек: FLAC (*.flac)
Тип рипа: tracks+.cue
Битрейт аудио: lossless
Продолжительность: 49:35
Источник (релизер): сетЪ (sashulcha)
Наличие сканов в содержимом раздачи: да
Треклист:
SAMA One
SAMA Two
SAMA Three
SAMA Four
SAMA Five
SAMA Six
SAMA Seven
SAMA Eight
 
Лог создания рипа
Exact Audio Copy V0.99 prebeta 5 from 4. May 2009
EAC extraction logfile from 2. October 2010, 16:07
Matthew Shipp & Sabir Mateen / SAMA
Used drive : HL-DT-STBDDVDRW GGC-H20L Adapter: 1 ID: 0
Read mode : Secure
Utilize accurate stream : Yes
Defeat audio cache : Yes
Make use of C2 pointers : No
Read offset correction : 667
Overread into Lead-In and Lead-Out : No
Fill up missing offset samples with silence : Yes
Delete leading and trailing silent blocks : No
Null samples used in CRC calculations : Yes
Used interface : Native Win32 interface for Win NT & 2000
Gap handling : Appended to previous track
Used output format : User Defined Encoder
Selected bitrate : 768 kBit/s
Quality : High
Add ID3 tag : No
Command line compressor : D:\Audio\Exact Audio Copy\FLAC\FLAC.EXE
Additional command line options : -V -8 -T "artist=%a" -T "title=%t" -T "album=%g" -T "date=%y" -T "tracknumber=%n" -T "genre=%m" %s
TOC of the extracted CD
Track | Start | Length | Start sector | End sector
---------------------------------------------------------
1 | 0:00.00 | 8:26.37 | 0 | 37986
2 | 8:26.37 | 5:55.47 | 37987 | 64658
3 | 14:22.09 | 3:55.25 | 64659 | 82308
4 | 18:17.34 | 7:36.50 | 82309 | 116558
5 | 25:54.09 | 8:47.36 | 116559 | 156119
6 | 34:41.45 | 4:34.10 | 156120 | 176679
7 | 39:15.55 | 6:16.07 | 176680 | 204886
8 | 45:31.62 | 4:03.45 | 204887 | 223156
Track 1
Filename E:\!!New Rip\Matthew Shipp & Sabir Mateen - SAMA\01 - SAMA One.wav
Pre-gap length 0:00:02.00
Peak level 96.4 %
Track quality 100.0 %
Test CRC 7900AE33
Copy CRC 7900AE33
Track not present in AccurateRip database
Copy OK
Track 2
Filename E:\!!New Rip\Matthew Shipp & Sabir Mateen - SAMA\02 - SAMA Two.wav
Peak level 96.4 %
Track quality 99.9 %
Test CRC C6DFDD67
Copy CRC C6DFDD67
Track not present in AccurateRip database
Copy OK
Track 3
Filename E:\!!New Rip\Matthew Shipp & Sabir Mateen - SAMA\03 - SAMA Three.wav
Peak level 96.4 %
Track quality 100.0 %
Test CRC 3C8DE995
Copy CRC 3C8DE995
Track not present in AccurateRip database
Copy OK
Track 4
Filename E:\!!New Rip\Matthew Shipp & Sabir Mateen - SAMA\04 - SAMA Four.wav
Peak level 96.4 %
Track quality 100.0 %
Test CRC 0B6FDB58
Copy CRC 0B6FDB58
Track not present in AccurateRip database
Copy OK
Track 5
Filename E:\!!New Rip\Matthew Shipp & Sabir Mateen - SAMA\05 - SAMA Five.wav
Peak level 96.4 %
Track quality 100.0 %
Test CRC 1AC0D76E
Copy CRC 1AC0D76E
Track not present in AccurateRip database
Copy OK
Track 6
Filename E:\!!New Rip\Matthew Shipp & Sabir Mateen - SAMA\06 - SAMA Six.wav
Peak level 96.5 %
Track quality 100.0 %
Test CRC AED5E5A3
Copy CRC AED5E5A3
Track not present in AccurateRip database
Copy OK
Track 7
Filename E:\!!New Rip\Matthew Shipp & Sabir Mateen - SAMA\07 - SAMA Seven.wav
Peak level 96.3 %
Track quality 100.0 %
Test CRC 7DF50C29
Copy CRC 7DF50C29
Track not present in AccurateRip database
Copy OK
Track 8
Filename E:\!!New Rip\Matthew Shipp & Sabir Mateen - SAMA\08 - SAMA Eight.wav
Peak level 96.4 %
Track quality 100.0 %
Test CRC 31F80D31
Copy CRC 31F80D31
Track not present in AccurateRip database
Copy OK
None of the tracks are present in the AccurateRip database
No errors occurred
End of status report
 
Содержание индексной карты (.CUE)
REM GENRE Jazz
REM DATE 2010
REM DISCID 720B9F08
REM COMMENT "ExactAudioCopy v0.99pb5"
PERFORMER "Matthew Shipp & Sabir Mateen"
TITLE "SAMA"
FILE "01 - SAMA One.wav" WAVE
TRACK 01 AUDIO
TITLE "SAMA One"
PERFORMER "Matthew Shipp & Sabir Mateen"
INDEX 01 00:00:00
FILE "02 - SAMA Two.wav" WAVE
TRACK 02 AUDIO
TITLE "SAMA Two"
PERFORMER "Matthew Shipp & Sabir Mateen"
INDEX 01 00:00:00
FILE "03 - SAMA Three.wav" WAVE
TRACK 03 AUDIO
TITLE "SAMA Three"
PERFORMER "Matthew Shipp & Sabir Mateen"
INDEX 01 00:00:00
FILE "04 - SAMA Four.wav" WAVE
TRACK 04 AUDIO
TITLE "SAMA Four "
PERFORMER "Matthew Shipp & Sabir Mateen"
INDEX 01 00:00:00
FILE "05 - SAMA Five.wav" WAVE
TRACK 05 AUDIO
TITLE "SAMA Five"
PERFORMER "Matthew Shipp & Sabir Mateen"
INDEX 01 00:00:00
FILE "06 - SAMA Six.wav" WAVE
TRACK 06 AUDIO
TITLE "SAMA Six"
PERFORMER "Matthew Shipp & Sabir Mateen"
INDEX 01 00:00:00
FILE "07 - SAMA Seven.wav" WAVE
TRACK 07 AUDIO
TITLE "SAMA Seven"
PERFORMER "Matthew Shipp & Sabir Mateen"
INDEX 01 00:00:00
FILE "08 - SAMA Eight.wav" WAVE
TRACK 08 AUDIO
TITLE "SAMA Eight"
PERFORMER "Matthew Shipp & Sabir Mateen"
INDEX 01 00:00:00
 
Об альбоме (сборнике)
Pianist Matthew Shipp and multi-instrumentalist Sabir Mateen make for fascinating duet partners on this album, which is an eight part suite of completely improvised music recorded at the Roulette Studio in New York City. While Mateen plays a battery of instruments from saxohpone to flute, it appears that he sticks to clarinet throughout this recording. The high woody sound of the clarinet makes from a fascinating contrast with Shipp's often low and probing keyboard playing. Shipp's piano playing is clearly articulated and patient whether his is laying down a foundation for Mateen to improvise over, or engaging him in a head-to-head duet. Shipp lays down beautifully stark and dark toned chords and notes, and Mateen swirls and probes them in a natural and organic way. There is nothing forced about the music, the two work together seamlessly with a common goal and strategy in mind. The suite builds logically through a series of dynamic moods and textures, from fast paced free improvisation to long and low abstractions of melody and form. Both musicians are patient and sympathetic duet partners and they make music that has an open ended muse and graceful poise. Sama - amazon.com
 
Состав
Matthew Shipp - piano
Sabir Mateen - clarinet
По всем вопросам пишите личное сообщение пользователю M0p94ok.
04:14
138
Нет комментариев. Ваш будет первым!