Вы используете незарегистрированную версию компонента "Вкладки"!

Поиск

(free jazz, avant-garde) Paul Bley - Turns - 1964, FLAC (tracks+.cue) lossless

Треклист:
Paul Bley
Turns
Жанр: free jazz, avant-garde
Страна-производитель диска: France
Год выхода альбома: 1964
Год издания диска: 1987
Издатель (лейбл): Savoy Jazz Records
Номер по каталогу: CDOR 9011
Аудио кодек: FLAC (*.flac)
Тип рипа: tracks+.cue
Битрейт аудио: lossless
Продолжительность: 00:46:22
Источник (релизер): другой трекер
Наличие сканов в содержимом раздачи: да
Треклист:
01. Around Again
02. Calls
03. King Korn
04. Ida Lupino (alternate take)
05. Ida Lupino
06. Syndrome
07. Turns
08. Ictus
Исполнители:
Paul Bley - (piano)
John Gilmore - (tenor saxphone)
Gary Peacock - (bass)
Paul Motian - (drums)
 
Лог создания рипа
X Lossless Decoder version 20080926 (93.3)
XLD extraction logfile from 2009-02-09 14:07:28 +0100
Paul Bley / Turns
Used drive : OPTIARC DVD RW AD-5630A (revision 1AHM)
Use cdparanoia mode : YES (CDParanoia III 10.2 engine)
Disable audio cache : OK for the drive with cache less than 2750KB
Make use of C2 pointers : NO
Read offset correction : 48
Max retry count : 100
TOC of the extracted CD
Track | Start | Length | Start sector | End sector
---------------------------------------------------------
1 | 00:00:33 | 05:46:30 | 33 | 26012
2 | 05:46:63 | 06:19:27 | 26013 | 54464
3 | 12:06:15 | 06:10:28 | 54465 | 82242
4 | 18:16:43 | 05:26:70 | 82243 | 106762
5 | 23:43:38 | 05:08:67 | 106763 | 129929
6 | 28:52:30 | 06:40:08 | 129930 | 159937
7 | 35:32:38 | 06:39:50 | 159938 | 189912
8 | 42:12:13 | 04:10:10 | 189913 | 208672
All Tracks
Album gain : -2.23 dB
Peak : 0.991119
Track 01
Filename : /Volumes/8-Jazz + altro/Flac per Pedro's/Paul Bley - Turns (2008) [FLAC]/01 - Around Again.flac
Track gain : -1.73 dB
Peak : 0.824646
CRC32 hash (test run) : 90BD04B1
CRC32 hash : 90BD04B1
CRC32 hash (skip zero) : EB07E74F
AccurateRip signature : EA3EC2E6
->Track not present in AccurateRip database.
Statistics
Read error : 0
Skipped (treated as error) : 0
Edge jitter error (maybe fixed) : 0
Atom jitter error (maybe fixed) : 0
Drift error (maybe fixed) : 0
Dropped bytes error (maybe fixed) : 0
Duplicated bytes error (maybe fixed) : 0
Inconsistency in error sectors : 0
Track 02
Filename : /Volumes/8-Jazz + altro/Flac per Pedro's/Paul Bley - Turns (2008) [FLAC]/02 - Calls.flac
Track gain : -3.53 dB
Peak : 0.991119
CRC32 hash (test run) : D6F0412A
CRC32 hash : D6F0412A
CRC32 hash (skip zero) : FB8E9B51
AccurateRip signature : B3F4B9DC
->Track not present in AccurateRip database.
Statistics
Read error : 0
Skipped (treated as error) : 0
Edge jitter error (maybe fixed) : 0
Atom jitter error (maybe fixed) : 0
Drift error (maybe fixed) : 0
Dropped bytes error (maybe fixed) : 0
Duplicated bytes error (maybe fixed) : 0
Inconsistency in error sectors : 0
Track 03
Filename : /Volumes/8-Jazz + altro/Flac per Pedro's/Paul Bley - Turns (2008) [FLAC]/03 - King Horn.flac
Track gain : -2.48 dB
Peak : 0.924774
CRC32 hash (test run) : AF7719E9
CRC32 hash : AF7719E9
CRC32 hash (skip zero) : 3689017C
AccurateRip signature : EB7EFC62
->Track not present in AccurateRip database.
Statistics
Read error : 0
Skipped (treated as error) : 0
Edge jitter error (maybe fixed) : 0
Atom jitter error (maybe fixed) : 0
Drift error (maybe fixed) : 0
Dropped bytes error (maybe fixed) : 0
Duplicated bytes error (maybe fixed) : 0
Inconsistency in error sectors : 0
Track 04
Filename : /Volumes/8-Jazz + altro/Flac per Pedro's/Paul Bley - Turns (2008) [FLAC]/04 - Ida Lupino (Alternate Take).flac
Track gain : -1.92 dB
Peak : 0.894226
CRC32 hash (test run) : D62D1A5D
CRC32 hash : D62D1A5D
CRC32 hash (skip zero) : 432EC577
AccurateRip signature : C26C280B
->Track not present in AccurateRip database.
Statistics
Read error : 0
Skipped (treated as error) : 0
Edge jitter error (maybe fixed) : 0
Atom jitter error (maybe fixed) : 0
Drift error (maybe fixed) : 0
Dropped bytes error (maybe fixed) : 0
Duplicated bytes error (maybe fixed) : 0
Inconsistency in error sectors : 0
Track 05
Filename : /Volumes/8-Jazz + altro/Flac per Pedro's/Paul Bley - Turns (2008) [FLAC]/05 - Ida Lupino.flac
Track gain : -0.22 dB
Peak : 0.715027
CRC32 hash (test run) : 7F4F527E
CRC32 hash : 7F4F527E
CRC32 hash (skip zero) : BD7616ED
AccurateRip signature : BF9EB576
->Track not present in AccurateRip database.
Statistics
Read error : 0
Skipped (treated as error) : 0
Edge jitter error (maybe fixed) : 0
Atom jitter error (maybe fixed) : 0
Drift error (maybe fixed) : 0
Dropped bytes error (maybe fixed) : 0
Duplicated bytes error (maybe fixed) : 0
Inconsistency in error sectors : 0
Track 06
Filename : /Volumes/8-Jazz + altro/Flac per Pedro's/Paul Bley - Turns (2008) [FLAC]/06 - Syndrome.flac
Track gain : -2.55 dB
Peak : 0.811981
CRC32 hash (test run) : 4B0DD86A
CRC32 hash : 4B0DD86A
CRC32 hash (skip zero) : 89C3318A
AccurateRip signature : 31962229
->Track not present in AccurateRip database.
Statistics
Read error : 0
Skipped (treated as error) : 0
Edge jitter error (maybe fixed) : 0
Atom jitter error (maybe fixed) : 0
Drift error (maybe fixed) : 0
Dropped bytes error (maybe fixed) : 0
Duplicated bytes error (maybe fixed) : 0
Inconsistency in error sectors : 0
Track 07
Filename : /Volumes/8-Jazz + altro/Flac per Pedro's/Paul Bley - Turns (2008) [FLAC]/07 - Turns.flac
Track gain : -2.02 dB
Peak : 0.948425
CRC32 hash (test run) : DA85415F
CRC32 hash : DA85415F
CRC32 hash (skip zero) : 94D3B5C9
AccurateRip signature : ED5A46DE
->Track not present in AccurateRip database.
Statistics
Read error : 0
Skipped (treated as error) : 0
Edge jitter error (maybe fixed) : 1
Atom jitter error (maybe fixed) : 0
Drift error (maybe fixed) : 1
Dropped bytes error (maybe fixed) : 1
Duplicated bytes error (maybe fixed) : 1
Inconsistency in error sectors : 0
Track 08
Filename : /Volumes/8-Jazz + altro/Flac per Pedro's/Paul Bley - Turns (2008) [FLAC]/08 - Ictus.flac
Track gain : -1.13 dB
Peak : 0.828674
CRC32 hash (test run) : 345170BF
CRC32 hash : 345170BF
CRC32 hash (skip zero) : E9E4C194
AccurateRip signature : 6A60AE11
->Track not present in AccurateRip database.
Statistics
Read error : 0
Skipped (treated as error) : 0
Edge jitter error (maybe fixed) : 0
Atom jitter error (maybe fixed) : 0
Drift error (maybe fixed) : 0
Dropped bytes error (maybe fixed) : 0
Duplicated bytes error (maybe fixed) : 0
Inconsistency in error sectors : 0
No errors occurred
End of status report
 
Содержание индексной карты (.cue)
TITLE "Turns"
PERFORMER "Paul Bley"
REM GENRE "Jazz"
FILE "01 - Around Again.wav" WAVE
TRACK 01 AUDIO
TITLE "Around Again"
INDEX 00 00:00:00
INDEX 01 00:00:33
TRACK 02 AUDIO
TITLE "Calls"
INDEX 00 05:42:70
FILE "02 - Calls.wav" WAVE
INDEX 01 00:00:00
TRACK 03 AUDIO
TITLE "King Horn"
INDEX 00 06:16:52
FILE "03 - King Horn.wav" WAVE
INDEX 01 00:00:00
TRACK 04 AUDIO
TITLE "Ida Lupino (Alternate Take)"
INDEX 00 06:06:12
FILE "04 - Ida Lupino (Alternate Take).wav" WAVE
INDEX 01 00:00:00
TRACK 05 AUDIO
TITLE "Ida Lupino"
INDEX 00 05:23:57
FILE "05 - Ida Lupino.wav" WAVE
INDEX 01 00:00:00
TRACK 06 AUDIO
TITLE "Syndrome"
INDEX 00 05:04:52
FILE "06 - Syndrome.wav" WAVE
INDEX 01 00:00:00
TRACK 07 AUDIO
TITLE "Turns"
INDEX 00 06:36:48
FILE "07 - Turns.wav" WAVE
INDEX 01 00:00:00
TRACK 08 AUDIO
TITLE "Ictus"
INDEX 00 06:36:05
FILE "08 - Ictus.wav" WAVE
INDEX 01 00:00:00
По всем вопросам пишите личное сообщение пользователю M0p94ok.
04:14
150
Нет комментариев. Ваш будет первым!