Вы используете незарегистрированную версию компонента "Вкладки"!

Поиск

(Free Jazz, Free Improvisation) Mural (Jim Denley, Kim Myhr, Ingar Zach) - Nectars of Emergence - 2010, FLAC (tracks+.cue) lossless

Треклист:
Mural / Nectars of Emergence
Жанр: Free Jazz, Free Improvisation
Страна-производитель диска: Норвегия
Год издания диска: 2010
Издатель (лейбл): Sofa
Номер по каталогу: SOFA528
Страна: Австралия / Норвегия
Аудио кодек: FLAC (*.flac)
Тип рипа: tracks+.cue
Битрейт аудио: lossless
Продолжительность: 51:31
Источник (релизер): вот.сиди
Наличие сканов в содержимом раздачи: нет
Треклист:
1 monolith of the chaotic pledge (6:59)
2 lumious continuum (5:56)
3 flash expansion (10:10)
4 radiance (6:12)
5 saturated field (6:12)
6 blood listener (4:13)
7 entropy (9:07)
 
Лог создания рипа
Exact Audio Copy V0.99 prebeta 5 from 4. May 2009
EAC extraction logfile from 17. October 2010, 13:27
Unknown Artist / Unknown Title
Used drive : HL-DT-STDVD+-RW GSA-T21N Adapter: 0 ID: 0
Read mode : Secure
Utilize accurate stream : Yes
Defeat audio cache : Yes
Make use of C2 pointers : No
Read offset correction : 0
Overread into Lead-In and Lead-Out : No
Fill up missing offset samples with silence : Yes
Delete leading and trailing silent blocks : No
Null samples used in CRC calculations : Yes
Used interface : Native Win32 interface for Win NT & 2000
Gap handling : Appended to previous track
Used output format : Internal WAV Routines
Sample format : 44.100 Hz; 16 Bit; Stereo
TOC of the extracted CD
Track | Start | Length | Start sector | End sector
---------------------------------------------------------
1 | 0:00.00 | 6:58.39 | 0 | 31388
2 | 6:58.39 | 8:37.58 | 31389 | 70221
3 | 15:36.22 | 10:11.21 | 70222 | 116067
4 | 25:47.43 | 6:11.39 | 116068 | 143931
5 | 31:59.07 | 6:11.38 | 143932 | 171794
6 | 38:10.45 | 4:12.45 | 171795 | 190739
7 | 42:23.15 | 9:07.37 | 190740 | 231801
Track 1
Filename C:\Documents and Settings\junerh\Desktop\new\01 Track01.wav
Pre-gap length 0:00:02.00
Peak level 100.0 %
Track quality 100.0 %
Test CRC 078C39A3
Copy CRC 078C39A3
Copy OK
Track 2
Filename C:\Documents and Settings\junerh\Desktop\new\02 Track02.wav
Peak level 100.0 %
Track quality 100.0 %
Test CRC D4B9896C
Copy CRC D4B9896C
Copy OK
Track 3
Filename C:\Documents and Settings\junerh\Desktop\new\03 Track03.wav
Peak level 100.0 %
Track quality 100.0 %
Test CRC 95C7AAB0
Copy CRC 95C7AAB0
Copy OK
Track 4
Filename C:\Documents and Settings\junerh\Desktop\new\04 Track04.wav
Peak level 100.0 %
Track quality 100.0 %
Test CRC 7C71660D
Copy CRC 7C71660D
Copy OK
Track 5
Filename C:\Documents and Settings\junerh\Desktop\new\05 Track05.wav
Peak level 100.0 %
Track quality 100.0 %
Test CRC 13CEF751
Copy CRC 13CEF751
Copy OK
Track 6
Filename C:\Documents and Settings\junerh\Desktop\new\06 Track06.wav
Peak level 100.0 %
Track quality 100.0 %
Test CRC 3FE3DE82
Copy CRC 3FE3DE82
Copy OK
Track 7
Filename C:\Documents and Settings\junerh\Desktop\new\07 Track07.wav
Peak level 100.0 %
Track quality 100.0 %
Test CRC B4786119
Copy CRC B4786119
Copy OK
No errors occurred
End of status report
 
Содержание индексной карты (.CUE)
REM DISCID 5B0C1207
REM COMMENT "ExactAudioCopy v0.99pb5"
PERFORMER "Unknown Artist"
TITLE "Unknown Title"
FILE "01 Track01.wav" WAVE
TRACK 01 AUDIO
TITLE "Track01"
PERFORMER "Unknown Artist"
INDEX 01 00:00:00
FILE "02 Track02.wav" WAVE
TRACK 02 AUDIO
TITLE "Track02"
PERFORMER "Unknown Artist"
INDEX 01 00:00:00
FILE "03 Track03.wav" WAVE
TRACK 03 AUDIO
TITLE "Track03"
PERFORMER "Unknown Artist"
INDEX 01 00:00:00
FILE "04 Track04.wav" WAVE
TRACK 04 AUDIO
TITLE "Track04"
PERFORMER "Unknown Artist"
INDEX 01 00:00:00
FILE "05 Track05.wav" WAVE
TRACK 05 AUDIO
TITLE "Track05"
PERFORMER "Unknown Artist"
INDEX 01 00:00:00
FILE "06 Track06.wav" WAVE
TRACK 06 AUDIO
TITLE "Track06"
PERFORMER "Unknown Artist"
INDEX 01 00:00:00
FILE "07 Track07.wav" WAVE
TRACK 07 AUDIO
TITLE "Track07"
PERFORMER "Unknown Artist"
INDEX 01 00:00:00
 
Лог проверки качества
AUDIOCHECKER v2.0 beta (build 457) - by Dester - opdester@freemail.hu
~~~~~~~~~~~~~~~~~~~~~~~~~~~~~~~~~~
-=== DO NOT EDIT THIS FILE! ===-
Path: ...\Mural - 2009 - Nectars of Emergence (log, cue)
1 -=- 01 Monolith of the Chaotic Pledge.flac -=- CDDA (100%)
2 -=- 02 Luminous Continuum.flac -=- CDDA (100%)
3 -=- 03 Flash Expansion.flac -=- CDDA (100%)
4 -=- 04 Saturated Field.flac -=- CDDA (100%)
5 -=- 05 Coming-Into-Being.flac -=- CDDA (100%)
6 -=- 06 Blood Listener.flac -=- CDDA (100%)
7 -=- 07 Entropy.flac -=- CDDA (100%)
Summary 100,00% CDDA
75364740
 
Состав
Jim Denley - alto saxophone/flutes
Kim Myhr - acoustic guitars/preparations
Ingar Zach - gran cassa/percussion
Any questions -> support@pro-jazz.com. По всем вопросам пишите -> support@pro-jazz.com
04:15
145
Нет комментариев. Ваш будет первым!