Поиск

(Free Jazz / Avant-Garde Jazz) Yosuke Yamashita — Mina's Second Theme — 1969, FLAC (tracks)

Треклист:
Mina's Second Theme
Yosuke Yamashita
Страна: Japan
Жанр: Free Jazz / Avant-Garde Jazz
Год выпуска: 1969
Формат: FLAC (tracks)
Продолжительность: 40:22
Трэклист:
01. Mina's Second Theme
02. Roihani
03. Gugan
Доп. информация:
Yosuke Yamashita Trio (1st formation):
Yosuke Yamashita : piano
Seiichi Nakamura : tenor saxophone
Takeo Moriyama : drums
Recorded October 14, 1969 / 2008 Remastered Version
 
еще картинка, нервным не заглядывать
в комплекте все коврики, куе, m3u, инфа
 
EAC extraction logfile
EAC extraction logfile from 26. April 2008, 13:47 for CD
Yosuke Yamashita / Mina's Second Theme
Used drive : TEAC DV-W28EA Adapter: 1 ID: 0
Read mode : Secure with NO C2, accurate stream, disable cache
Read offset correction : 72
Overread into Lead-In and Lead-Out : No
Used output format : C:\Program Files\FLAC\flac.exe (User Defined Encoder)
320 kBit/s
Additional command line options : -8 -V -T "ARTIST=%a" -T "TITLE=%t" -T "ALBUM=%g" -T "DATE=%y" -T "TRACKNUMBER=%n" -T "GENRE=%m" -T "COMMENT=EAC 0.95 beta 4, FLAC -8" %s
Other options :
Fill up missing offset samples with silence : Yes
Delete leading and trailing silent blocks : No
Installed external ASPI interface
Track 1
Filename C:\xxxxxxx\Yosuke Yamashita (1969) Mina's Second Theme\01. Mina's Second Theme.wav
Pre-gap length 0:00:02.00
Peak level 100.0 %
Track quality 100.0 %
Test CRC 291DE833
Copy CRC 291DE833
Copy OK
Track 2
Filename C:\xxxxxxx\Yosuke Yamashita (1969) Mina's Second Theme\02. Roihani.wav
Pre-gap length 0:00:03.57
Peak level 100.0 %
Track quality 100.0 %
Test CRC 6634931E
Copy CRC 6634931E
Copy OK
Track 3
Filename C:\xxxxxxx\Yosuke Yamashita (1969) Mina's Second Theme\03. Gugan.wav
Pre-gap length 0:00:02.55
Peak level 100.0 %
Track quality 100.0 %
Test CRC 61320D7C
Copy CRC 61320D7C
Copy OK
No errors occured
End of status report
Приватный:
Нет (DHT включён)
Размер:
257.44 Мб (269,946,243 байт) » файлов: 14
Участники:
0 раздают, 0 качают (0 участников всего)
Внешние участники:
2 раздают, 1 качают (3 участников всего) [ Обновить ]
Есть вопросы - пишите личное сообщение пользователю M0p94ok.
00:44
57
Нет комментариев. Ваш будет первым!