Поиск

(Jazz) Art Ensemble of Chicago - Fundamental Destiny - 1991, FLAC (image + .cue), lossless

(Jazz) Art Ensemble of Chicago - Fundamental Destiny - 1991, FLAC (image + .cue), lossless
Треклист:
Art Ensemble of Chicago - Fundamental Destiny
Страна: USA
Жанр: Jazz
Год выпуска: 1991
Формат: FLAC (image + .cue)
Битрейт аудио: lossless
Продолжительность: 52:09
People In Sorrow
Song For Atala
Fundamental Destiny
Odwalla - The Theme
 
EAC Report
Exact Audio Copy V0.99 prebeta 4 from 23. January 2008
EAC extraction logfile from 17. April 2008, 0:29
Art Ensemble of Chicago / Fundamental Destiny
Used drive : TSSTcorpCD/DVDW SH-S182M Adapter: 2 ID: 0
Read mode : Secure
Utilize accurate stream : Yes
Defeat audio cache : Yes
Make use of C2 pointers : No
Read offset correction : 6
Overread into Lead-In and Lead-Out : No
Fill up missing offset samples with silence : Yes
Delete leading and trailing silent blocks : No
Null samples used in CRC calculations : No
Used interface : Installed external ASPI interface
Used output format : User Defined Encoder
Selected bitrate : 1024 kBit/s
Quality : High
Add ID3 tag : No
Command line compressor : C:\Program Files\Exact Audio Copy\FLAC\FLAC.EXE
Additional command line options : -6 -V -T "ARTIST=%a" -T "TITLE=%t" -T "ALBUM=%g" -T "DATE=%y" -T "TRACKNUMBER=%n" -T "GENRE=%m" -T "COMMENT=%e" %s -o %d
TOC of the extracted CD
Track | Start | Length | Start sector | End sector
---------------------------------------------------------
1 | 0:00.00 | 19:47.37 | 0 | 89061
2 | 19:47.37 | 16:48.61 | 89062 | 164722
3 | 36:36.23 | 11:56.48 | 164723 | 218470
4 | 48:32.71 | 3:35.48 | 218471 | 234643
Range status and errors
Selected range
Filename F:\z\Art Ensemble of Chicago - Fundamental Destiny.wav
Peak level 100.0 %
Range quality 100.0 %
Copy CRC D146B901
Copy OK
No errors occurred
AccurateRip summary
Track 1 not present in database
Track 2 not present in database
Track 3 not present in database
Track 4 not present in database
None of the tracks are present in the AccurateRip database
End of status report
Приватный:
Нет (DHT включён)
Размер:
325.70 Мб (341,519,188 байт) » файлов: 6
Участники:
0 раздают, 0 качают (0 участников всего)
Внешние участники:
5 раздают, 1 качают (6 участников всего) [ Обновить ]
Есть вопросы - пишите личное сообщение пользователю M0p94ok.
00:44
44
Нет комментариев. Ваш будет первым!