Поиск

(Avant-Garde Jazz / Minimalism) Nik Bärtsch's Mobil (Nik Bartsch) - Aer - 2004, FLAC (image + .cue), lossless

(Avant-Garde Jazz / Minimalism) Nik Bärtsch's Mobil (Nik Bartsch) - Aer - 2004, FLAC (image + .cue), lossless
Треклист:
Nik Bärtsch's Mobil - "Aer" (2004)
Страна: Switzerland
Жанр: Avant-Garde Jazz / Minimalism
Год выпуска: 2004
Формат: FLAC (image + .cue)
Битрейт аудио: lossless
Продолжительность: 39:49
Nik Bärtsch piano
Mats Eser marimba, percussion
Sha bass clarinets, altosax
Kaspar Rast drums
Треклист:
01. Modul 29 [8:02]
02. Modul 16 [11:02]
03. Modul 18 [4:49]
04. Modul 20 [3:08]
05. Modul 26 [2:06]
06. Modul 8_11 [10:42]
Recorded at Radiostudio, Zurich August 2003
Ritual Groove Music 6
Ritual Groove Music:
8 Nik Bärtsch's Ronin - Holon
7 Nik Bärtsch's Ronin - Stoa релиз opusv
 
EAC Report
Exact Audio Copy V0.99 prebeta 4 from 23. January 2008
EAC extraction logfile from 20. April 2008, 14:00
Nik Bärtsch's Mobil / Aer
Used drive : TSSTcorpCD/DVDW SH-S182M Adapter: 2 ID: 1
Read mode : Secure
Utilize accurate stream : Yes
Defeat audio cache : Yes
Make use of C2 pointers : No
Read offset correction : 6
Overread into Lead-In and Lead-Out : No
Fill up missing offset samples with silence : Yes
Delete leading and trailing silent blocks : No
Null samples used in CRC calculations : No
Used interface : Installed external ASPI interface
Used output format : User Defined Encoder
Selected bitrate : 1024 kBit/s
Quality : High
Add ID3 tag : No
Command line compressor : C:\Program Files\Exact Audio Copy\FLAC\FLAC.EXE
Additional command line options : -6 -V -T "ARTIST=%a" -T "TITLE=%t" -T "ALBUM=%g" -T "DATE=%y" -T "TRACKNUMBER=%n" -T "GENRE=%m" -T "COMMENT=%e" %s -o %d
TOC of the extracted CD
Track | Start | Length | Start sector | End sector
---------------------------------------------------------
1 | 0:00.00 | 8:01.72 | 0 | 36146
2 | 8:01.72 | 11:02.21 | 36147 | 85817
3 | 19:04.18 | 4:48.71 | 85818 | 107488
4 | 23:53.14 | 3:07.62 | 107489 | 121575
5 | 27:01.01 | 2:06.33 | 121576 | 131058
6 | 29:07.34 | 10:42.01 | 131059 | 179209
Range status and errors
Selected range
Filename F:\z\Nik Bärtsch's Mobil - Aer.wav
Peak level 99.9 %
Range quality 100.0 %
Copy CRC 96702ADB
Copy OK
No errors occurred
AccurateRip summary
Track 1 not present in database
Track 2 not present in database
Track 3 not present in database
Track 4 not present in database
Track 5 not present in database
Track 6 not present in database
None of the tracks are present in the AccurateRip database
End of status report
Приватный:
Нет (DHT включён)
Размер:
229.77 Мб (240,928,526 байт) » файлов: 6
Участники:
0 раздают, 0 качают (0 участников всего)
Внешние участники:
5 раздают, 2 качают (7 участников всего) [ Обновить ]
Есть вопросы - пишите личное сообщение пользователю M0p94ok.
00:42
49
Нет комментариев. Ваш будет первым!