Поиск

(jazz) Sun Ra - Mayan Temples (Black Saint) - 1992, FLAC (tracks), lossless

Треклист:
Sun Ra - Mayan Temples (Black Saint)
Страна: usa
Жанр: jazz
Год выпуска: 1992
Формат: FLAC (tracks)
Битрейт аудио: lossless
Продолжительность: 79:10
Трэклист:
1. Dance of the Language Barrier (Ra) (3:58)
2. Bygone (Ra) (5:15)
3. Discipline No. 1 (Ra) (4:57)
4. Alone Together (Dietz-Schwartz) (7:02)
5. Prelude to Stargazers (Ra) (5:17)
6. Mayan Temples (Ra) (7:40)
7. I'll Never Be The Same (Kahn-Malneck-Signorelli) (4:57)
8. Stardust from Tomorrow (Ra) (3:38)
9. El Is the Sound Of Joy (Ra) (5:26)
10.Time after Time (Cahn-Styne) (4:21)
11.Opus in Springtime (Ra) (6:41)
12.Theme on (of) the Stargazers (Ra) (14:09)
13.Sunset on the Night on the River Nile (Sunset on the Nile) (Ra) (5:42)
Доп. информация:
Sun Ra-p, syn;
Michael Ray-tp, voc;
Ahmed Abdullah-tp, voc;
Tyrone Hill-tb;
Marshall Allen, as, fl;
Noel Scott-as;
John Gilmore-ts, timbales;
James Jacson-bsn, Ancient Egyptian Infinity Drum;
June Tyson-voc;
Jothan Callins-b, eb;
Clifford Barbaro-d;
Earl "Buster" Smith-d;
Ron McBee-cga, perc;
Jorge Silva-perc;
Elson Nascimento-surdo, perc.
Mondial Sound, Milano, Italy, 7/24-25/1990
Black Saint 120 121-2 (1992, CD)
Как и обещал, выкладываю данный диск. Отличная запись, симбиоз традиционного звучания и импровизации.
 
скрытый текст
Exact Audio Copy V0.99 prebeta 1 from 25. May 2007
Отчёт EAC об извлечении, выполненном 26. апреля 2008, 15:20
Sun Ra Arkestra / Mayan Temples
Дисковод: TSSTcorpDVD+-RW TS-L632D Adapter: 3 ID: 0
Режим чтения : Достоверность
Использование точного потока : Да
Отключение кэша аудио : Да
Использование указателей C2 : Нет
Коррекция смещения при чтении : 6
Способность читать области Lead-in и Lead-out : Нет
Заполнение пропущенных сэмплов тишиной : Да
Удаление блоков с тишиной в начале и конце : Нет
Интерфейс : Встроенный Win32-интерфейс для Win NT/2000
Выходной формат : Внутренние WAV-операции
Формат сэмплов : 44.100 Гц; 16 бит; стерео
TOC извлечённого CD
Трек | Старт | Длительность | Начальный сектор | Конечный сектор
---------------------------------------------------------------------
1 | 0:00.33 | 3:58.25 | 33 | 17907
2 | 3:58.58 | 5:15.62 | 17908 | 41594
3 | 9:14.45 | 4:57.65 | 41595 | 63934
4 | 14:12.35 | 7:02.35 | 63935 | 95619
5 | 21:14.70 | 5:17.33 | 95620 | 119427
6 | 26:32.28 | 7:40.15 | 119428 | 153942
7 | 34:12.43 | 4:57.00 | 153943 | 176217
8 | 39:09.43 | 3:38.65 | 176218 | 192632
9 | 42:48.33 | 5:26.22 | 192633 | 217104
10 | 48:14.55 | 4:21.25 | 217105 | 236704
11 | 52:36.05 | 6:41.48 | 236705 | 266827
12 | 59:17.53 | 14:09.62 | 266828 | 330564
13 | 73:27.40 | 5:42.68 | 330565 | 356282
Характеристики диапазона извлечения и сообщения об ошибках
Выбранный диапазон
Имя файла C:\Documents and Settings\Ultra Electronic\Мои документы\Azureus Downloads\Sun Ra Arkestra - Mayan Temples.wav
Пиковый уровень 100.0 %
Качество диапазона 100.0 %
CRC теста 4F8FE6DF
CRC копии 4F8FE6DF
Копирование... OK
Ошибок не произошло
Конец отчёта
Приватный:
Нет (DHT включён)
Размер:
422.80 Мб (443,335,579 байт) » файлов: 20
Участники:
0 раздают, 0 качают (0 участников всего)
Внешние участники:
3 раздают, 1 качают (4 участников всего) [ Обновить ]
Есть вопросы - пишите личное сообщение пользователю M0p94ok.
00:42
68
Нет комментариев. Ваш будет первым!