Вы используете незарегистрированную версию компонента "Вкладки"!

Поиск

(Free Jazz, Avant-Garde Jazz) Tisziji Munoz (w/ Marilyn Crispell, Don Pate, Rashied Ali) - Breaking The Wheel Of Life And Death! - 2000, FLAC (tracks+.cue), lossless

(Free Jazz, Avant-Garde Jazz) Tisziji Munoz (w/ Marilyn Crispell, Don Pate, Rashied Ali) - Breaking The Wheel Of Life And Death! - 2000, FLAC (tracks+.cue), lossless
Треклист:
Tisziji Munoz / Breaking The Wheel Of Life And Death!
Жанр: Free Jazz, Avant-Garde Jazz
Страна-производитель диска: US
Год издания: 2000
Издатель (лейбл): Anami Music
Номер по каталогу: AM0019
Страна: US
Аудиокодек: FLAC (*.flac)
Тип рипа: tracks+.cue
Битрейт аудио: lossless
Продолжительность: 67:39
Источник (релизер): свой фирменный диск
Наличие сканов в содержимом раздачи:
Треклист:
1. Divine Urgency! 4:36
2. Breaking The Wheel Of Life And Death! 11:34
3. Piano Intro To Lemuria 2:31
4. Lemuria 14:08
5. The Elder Of The Mysteries 17:00
6. God-Fire (Pyramid) 16:08
7. Spirit Path Intro 1:22
 
Лог создания рипа
Exact Audio Copy V1.0 beta 3 from 29. August 2011
EAC extraction logfile from 4. November 2013, 14:51
Tisziji Munoz / Breaking The Wheel Of Life And Death!
Used drive : PIONEER DVD-RW DVR-115D Adapter: 0 ID: 0
Read mode : Secure
Utilize accurate stream : Yes
Defeat audio cache : Yes
Make use of C2 pointers : No
Read offset correction : 48
Overread into Lead-In and Lead-Out : No
Fill up missing offset samples with silence : Yes
Delete leading and trailing silent blocks : No
Null samples used in CRC calculations : Yes
Used interface : Installed external ASPI interface
Gap handling : Appended to previous track
Used output format : User Defined Encoder
Selected bitrate : 896 kBit/s
Quality : High
Add ID3 tag : No
Command line compressor : C:\Program Files\Exact Audio Copy\FLAC\FLAC.EXE
Additional command line options : -6 -V -T "ARTIST=%artist%" -T "TITLE=%title%" -T "ALBUM=%albumtitle%" -T "DATE=%year%" -T "TRACKNUMBER=%tracknr%" -T "GENRE=%genre%" -T "COMMENT=%comment%" -T "BAND=%albuminterpret%" -T "COMPOSER=%composer%" %haslyrics%--tag-from-file=LYRICS="%lyricsfile%"%haslyrics% -T "DISCNUMBER=%cdnumber%" -T "TOTALDISCS=%totalcds%" -T "TOTALTRACKS=%numtracks%" %hascover%--picture="%coverfile%"%hascover% %source% -o %dest%
TOC of the extracted CD
Track | Start | Length | Start sector | End sector
---------------------------------------------------------
1 | 0:00.00 | 4:39.03 | 0 | 20927
2 | 4:39.03 | 11:37.01 | 20928 | 73203
3 | 16:16.04 | 2:34.50 | 73204 | 84803
4 | 18:50.54 | 14:11.00 | 84804 | 148628
5 | 33:01.54 | 17:03.55 | 148629 | 225408
6 | 50:05.34 | 16:11.60 | 225409 | 298293
7 | 66:17.19 | 1:22.02 | 298294 | 304445
Track 1
Filename D:\zzz\01 - Divine Urgency!.wav
Pre-gap length 0:00:02.00
Peak level 98.5 %
Extraction speed 4.5 X
Track quality 100.0 %
Test CRC FD6311B0
Copy CRC FD6311B0
Track not present in AccurateRip database
Copy OK
Track 2
Filename D:\zzz\02 - Breaking The Wheel Of Life And Death!.wav
Pre-gap length 0:00:02.74
Peak level 99.3 %
Extraction speed 5.7 X
Track quality 100.0 %
Test CRC 8099A673
Copy CRC 8099A673
Track not present in AccurateRip database
Copy OK
Track 3
Filename D:\zzz\03 - Piano Intro To Lemuria.wav
Pre-gap length 0:00:03.00
Peak level 82.8 %
Extraction speed 4.6 X
Track quality 99.9 %
Test CRC 7AF2AECA
Copy CRC 7AF2AECA
Track not present in AccurateRip database
Copy OK
Track 4
Filename D:\zzz\04 - Lemuria.wav
Pre-gap length 0:00:03.00
Peak level 98.6 %
Extraction speed 7.1 X
Track quality 100.0 %
Test CRC 903F5771
Copy CRC 903F5771
Track not present in AccurateRip database
Copy OK
Track 5
Filename D:\zzz\05 - The Elder Of The Mysteries.wav
Pre-gap length 0:00:02.74
Peak level 98.6 %
Extraction speed 8.2 X
Track quality 100.0 %
Test CRC 04D2AAC7
Copy CRC 04D2AAC7
Track not present in AccurateRip database
Copy OK
Track 6
Filename D:\zzz\06 - God-Fire (Pyramid).wav
Pre-gap length 0:00:03.00
Peak level 98.6 %
Extraction speed 9.1 X
Track quality 100.0 %
Test CRC 0850C42E
Copy CRC 0850C42E
Track not present in AccurateRip database
Copy OK
Track 7
Filename D:\zzz\07 - Spirit Path Intro.wav
Pre-gap length 0:00:03.00
Peak level 94.9 %
Extraction speed 5.2 X
Track quality 99.8 %
Test CRC 79475784
Copy CRC 79475784
Track not present in AccurateRip database
Copy OK
None of the tracks are present in the AccurateRip database
No errors occurred
End of status report
==== Log checksum D1C6B67CADD0A1220BAF24C2A02B6B1EE2C09307F6C5C7286F9FAD550EA2FE07 ====
 
Содержание индексной карты (.CUE)
REM GENRE "Avant-Garde Jazz"
REM DATE 2000
REM DISCID 670FDB07
REM COMMENT "ExactAudioCopy v1.0b3"
PERFORMER "Tisziji Munoz"
TITLE "Breaking The Wheel Of Life And Death!"
FILE "01 - Divine Urgency!.wav" WAVE
TRACK 01 AUDIO
TITLE "Divine Urgency!"
PERFORMER "Tisziji Munoz"
INDEX 01 00:00:00
TRACK 02 AUDIO
TITLE "Breaking The Wheel Of Life And Death!"
PERFORMER "Tisziji Munoz"
INDEX 00 04:36:04
FILE "02 - Breaking The Wheel Of Life And Death!.wav" WAVE
INDEX 01 00:00:00
TRACK 03 AUDIO
TITLE "Piano Intro To Lemuria"
PERFORMER "Tisziji Munoz"
INDEX 00 11:34:01
FILE "03 - Piano Intro To Lemuria.wav" WAVE
INDEX 01 00:00:00
TRACK 04 AUDIO
TITLE "Lemuria"
PERFORMER "Tisziji Munoz"
INDEX 00 02:31:50
FILE "04 - Lemuria.wav" WAVE
INDEX 01 00:00:00
TRACK 05 AUDIO
TITLE "The Elder Of The Mysteries"
PERFORMER "Tisziji Munoz"
INDEX 00 14:08:01
FILE "05 - The Elder Of The Mysteries.wav" WAVE
INDEX 01 00:00:00
TRACK 06 AUDIO
TITLE "God-Fire (Pyramid)"
PERFORMER "Tisziji Munoz"
INDEX 00 17:00:55
FILE "06 - God-Fire (Pyramid).wav" WAVE
INDEX 01 00:00:00
TRACK 07 AUDIO
TITLE "Spirit Path Intro"
PERFORMER "Tisziji Munoz"
INDEX 00 16:08:60
FILE "07 - Spirit Path Intro.wav" WAVE
INDEX 01 00:00:00
 
Лог проверки качества
d:\>d:\aucdtect -d/-m0 d:\zzz\*.wav
auCDtect: CD records authenticity detector, version 0.8.2
Copyright (c) 2004 Oleg Berngardt. All rights reserved.
Copyright (c) 2004 Alexander Djourik. All rights reserved.
------------------------------------------------------------
Processing file: [01. Divine Urgency!.wav]
------------------------------------------------------------
This track looks like CDDA with probability 100%
------------------------------------------------------------
Processing file: [02. Breaking The Wheel Of Life And Death!.wav]
------------------------------------------------------------
This track looks like CDDA with probability 100%
------------------------------------------------------------
Processing file: [03. Piano Intro To Lemuria.wav]
------------------------------------------------------------
This track looks like MPEG with probability 100%
------------------------------------------------------------
Processing file: [04. Lemuria.wav]
------------------------------------------------------------
This track looks like CDDA with probability 100%
------------------------------------------------------------
Processing file: [05. The Elder Of The Mysteries.wav]
------------------------------------------------------------
This track looks like CDDA with probability 100%
------------------------------------------------------------
Processing file: [06. God-Fire (Pyramid).wav]
------------------------------------------------------------
This track looks like CDDA with probability 100%
------------------------------------------------------------
Processing file: [07. Spirit Path Intro.wav]
------------------------------------------------------------
This track looks like MPEG with probability 97%
------------------------------------------------------------
Final Conclusion:
------------------------------------------------------------
Could not qualify the source of these tracks.
Доп. информация:
 
Album Info
Produced by Tisziji Munoz
All compositions by Tisziji Munoz
Art direction by Tisziji Munoz
Graphic layout by Mike Munoz & Lydia Lunch
Photos by Nancy Munoz
Recorded by Mike Munoz on June 11, 2000 at Cotton Hill Recording Studio, Latham NY
Mixed and mastered by Mike Munoz
"When I first heart Tisziji's music, I felt like I had come home. Years ago, when I began listening to jazz, I had a similar experience with the John Coltrane recording, "A Love Supreme." As I was listening to the music alone one night, I was overcome by the feeling of a presence of great love in the room there with me. ... Playing with Tisziji was like going back to that night such a long time ago. When I did this recording with Tisziji, Rashied and Don, I felt like I had gone back home again to the spiritual and emotional place that was revealed to me that night. It felt like a complete unspoken musical understanding between the four of us — no need to explain anything or hold anything back — we were all speaking the same language. I could be completely myself — could sing and soar as high as my imagination was capable of taking me. What a privilege and a blessing!
"I feel very grateful and honored to be included in Tisziji's vision. He is a master musician devoted to a path of healing and spirituality in his music as well as the rest of his life — a rare glowing spirit in a world of greed, commercialism and mundane values. May our connection last for a long, long, time. Tisziji, thank you for bringing me home!" -Marilyn Crispell
 
Состав
Tisziji Munoz: guitar, bells
Marilyn Crispell: piano
Don Pate: bass
Rashied Ali: drums
По всем вопросам пишите личное сообщение пользователю M0p94ok.
20:15
141
Нет комментариев. Ваш будет первым!