Вы используете незарегистрированную версию компонента "Вкладки"!

Поиск

(Free Jazz, Avant-Garde Jazz) Tisziji Munoz (w/ Marilyn Crispell, Henry Kaiser, Mark Dresser, Lukas Ligeti) - Auspicious Healing! - 2000, FLAC (tracks+.cue), lossless

(Free Jazz, Avant-Garde Jazz) Tisziji Munoz (w/ Marilyn Crispell, Henry Kaiser, Mark Dresser, Lukas Ligeti) - Auspicious Healing! - 2000, FLAC (tracks+.cue), lossless
Треклист:
Tisziji Munoz / Auspicious Healing!
Жанр: Free Jazz, Avant-Garde Jazz
Страна-производитель диска: US
Год издания: 2000
Издатель (лейбл): Anami Music
Номер по каталогу: AM0018
Страна: US
Аудиокодек: FLAC (*.flac)
Тип рипа: tracks+.cue
Битрейт аудио: lossless
Продолжительность: 73:36
Источник (релизер): свой фирменный диск
Наличие сканов в содержимом раздачи:
Треклист:
1. Auspicious! 5:02
2. Shenai Letticia Munoz (Prayer For A Safe Birth) 13:50
3. Teardrop (Blood From The Astral Heart) 12:08
4. Prayer For Tolerance (Accomodation) 16:38
5. Orange Chocolate Mint Medicine In G Humor 3:14
6. Brahms' Lullaby (The Way I Hear It!) 18:00
7. Healing In The Name Of "I Love You!" 4:24
 
Лог создания рипа
Exact Audio Copy V1.0 beta 3 from 29. August 2011
EAC extraction logfile from 3. November 2013, 19:13
Tisziji Munoz / Auspicious Healing!
Used drive : TSSTcorpCDDVDW SH-222AB Adapter: 1 ID: 0
Read mode : Secure
Utilize accurate stream : Yes
Defeat audio cache : Yes
Make use of C2 pointers : No
Read offset correction : 6
Overread into Lead-In and Lead-Out : No
Fill up missing offset samples with silence : Yes
Delete leading and trailing silent blocks : No
Null samples used in CRC calculations : Yes
Used interface : Installed external ASPI interface
Gap handling : Appended to previous track
Used output format : User Defined Encoder
Selected bitrate : 896 kBit/s
Quality : High
Add ID3 tag : No
Command line compressor : C:\Program Files\Exact Audio Copy\FLAC\FLAC.EXE
Additional command line options : -6 -V -T "ARTIST=%artist%" -T "TITLE=%title%" -T "ALBUM=%albumtitle%" -T "DATE=%year%" -T "TRACKNUMBER=%tracknr%" -T "GENRE=%genre%" -T "COMMENT=%comment%" -T "BAND=%albuminterpret%" -T "COMPOSER=%composer%" %haslyrics%--tag-from-file=LYRICS="%lyricsfile%"%haslyrics% -T "DISCNUMBER=%cdnumber%" -T "TOTALDISCS=%totalcds%" -T "TOTALTRACKS=%numtracks%" %hascover%--picture="%coverfile%"%hascover% %source% -o %dest%
TOC of the extracted CD
Track | Start | Length | Start sector | End sector
---------------------------------------------------------
1 | 0:00.00 | 5:04.73 | 0 | 22872
2 | 5:04.73 | 13:53.03 | 22873 | 85350
3 | 18:58.01 | 12:11.48 | 85351 | 140223
4 | 31:09.49 | 16:41.42 | 140224 | 215340
5 | 47:51.16 | 3:16.66 | 215341 | 230106
6 | 51:08.07 | 18:03.42 | 230107 | 311373
7 | 69:11.49 | 4:24.47 | 311374 | 331220
Track 1
Filename D:\zzz\01 - Auspicious!.wav
Pre-gap length 0:00:02.00
Peak level 92.8 %
Extraction speed 2.8 X
Track quality 100.0 %
Test CRC 1B0AB357
Copy CRC 1B0AB357
Accurately ripped (confidence 1) [5C62D38D] (AR v1)
Copy OK
Track 2
Filename D:\zzz\02 - Shenai Letticia Munoz (Prayer For A Safe Birth).wav
Pre-gap length 0:00:02.73
Peak level 98.7 %
Extraction speed 3.0 X
Track quality 100.0 %
Test CRC B45915F0
Copy CRC B45915F0
Accurately ripped (confidence 1) [9D73F196] (AR v1)
Copy OK
Track 3
Filename D:\zzz\03 - Teardrop (Blood From The Astral Heart).wav
Pre-gap length 0:00:03.00
Peak level 99.0 %
Extraction speed 3.0 X
Track quality 100.0 %
Test CRC 4EB7E858
Copy CRC 4EB7E858
Accurately ripped (confidence 1) [1869BF2B] (AR v1)
Copy OK
Track 4
Filename D:\zzz\04 - Prayer For Tolerance (Accomodation).wav
Pre-gap length 0:00:03.01
Peak level 98.3 %
Extraction speed 3.0 X
Track quality 100.0 %
Test CRC 7BB4C04E
Copy CRC 7BB4C04E
Accurately ripped (confidence 1) [BA63F3DE] (AR v1)
Copy OK
Track 5
Filename D:\zzz\05 - Orange Chocolate Mint Medicine In G Humor.wav
Pre-gap length 0:00:03.00
Peak level 98.2 %
Extraction speed 2.3 X
Track quality 99.9 %
Test CRC 88059CBB
Copy CRC 88059CBB
Accurately ripped (confidence 1) [C35566CB] (AR v1)
Copy OK
Track 6
Filename D:\zzz\06 - Brahms' Lullaby (The Way I Hear It!).wav
Pre-gap length 0:00:02.74
Peak level 98.6 %
Extraction speed 3.0 X
Track quality 100.0 %
Test CRC 229BC3AD
Copy CRC 229BC3AD
Accurately ripped (confidence 1) [177DDB79] (AR v1)
Copy OK
Track 7
Filename D:\zzz\07 - Healing In The Name Of ''I Love You!''.wav
Pre-gap length 0:00:03.01
Peak level 93.2 %
Extraction speed 2.4 X
Track quality 99.9 %
Test CRC 4122917A
Copy CRC 4122917A
Accurately ripped (confidence 1) [A86DB0BB] (AR v1)
Copy OK
All tracks accurately ripped
No errors occurred
End of status report
==== Log checksum 349017085AB7C41B68EBED9308F45995AD30C731FD1C45D0A15FC7063ACF4F5F ====
 
Содержание индексной карты (.CUE)
REM GENRE "Avant-Garde Jazz"
REM DATE 2000
REM DISCID 4D114007
REM COMMENT "ExactAudioCopy v1.0b3"
PERFORMER "Tisziji Munoz"
TITLE "Auspicious Healing!"
FILE "01 - Auspicious!.wav" WAVE
TRACK 01 AUDIO
TITLE "Auspicious!"
PERFORMER "Tisziji Munoz"
INDEX 01 00:00:00
TRACK 02 AUDIO
TITLE "Shenai Letticia Munoz (Prayer For A Safe Birth)"
PERFORMER "Tisziji Munoz"
INDEX 00 05:02:00
FILE "02 - Shenai Letticia Munoz (Prayer For A Safe Birth).wav" WAVE
INDEX 01 00:00:00
TRACK 03 AUDIO
TITLE "Teardrop (Blood From The Astral Heart)"
PERFORMER "Tisziji Munoz"
INDEX 00 13:50:03
FILE "03 - Teardrop (Blood From The Astral Heart).wav" WAVE
INDEX 01 00:00:00
TRACK 04 AUDIO
TITLE "Prayer For Tolerance (Accomodation)"
PERFORMER "Tisziji Munoz"
INDEX 00 12:08:47
FILE "04 - Prayer For Tolerance (Accomodation).wav" WAVE
INDEX 01 00:00:00
TRACK 05 AUDIO
TITLE "Orange Chocolate Mint Medicine In G Humor"
PERFORMER "Tisziji Munoz"
INDEX 00 16:38:42
FILE "05 - Orange Chocolate Mint Medicine In G Humor.wav" WAVE
INDEX 01 00:00:00
TRACK 06 AUDIO
TITLE "Brahms' Lullaby (The Way I Hear It!)"
PERFORMER "Tisziji Munoz"
INDEX 00 03:13:67
FILE "06 - Brahms' Lullaby (The Way I Hear It!).wav" WAVE
INDEX 01 00:00:00
TRACK 07 AUDIO
TITLE "Healing In The Name Of 'I Love You!'"
PERFORMER "Tisziji Munoz"
INDEX 00 18:00:41
FILE "07 - Healing In The Name Of ''I Love You!''.wav" WAVE
INDEX 01 00:00:00
 
Лог проверки качества
d:\>d:\aucdtect -d/-m0 d:\zzz\*.wav
auCDtect: CD records authenticity detector, version 0.8.2
Copyright (c) 2004 Oleg Berngardt. All rights reserved.
Copyright (c) 2004 Alexander Djourik. All rights reserved.
------------------------------------------------------------
Processing file: [01. Auspicious!.wav]
------------------------------------------------------------
This track looks like CDDA with probability 43%
------------------------------------------------------------
Processing file: [02. Shenai Letticia Munoz (Prayer For A Safe Birth).wav]
------------------------------------------------------------
This track looks like CDDA with probability 100%
------------------------------------------------------------
Processing file: [03. Teardrop (Blood From The Astral Heart).wav]
------------------------------------------------------------
This track looks like CDDA with probability 100%
------------------------------------------------------------
Processing file: [04. Prayer For Tolerance (Accomodation).wav]
------------------------------------------------------------
This track looks like CDDA with probability 100%
------------------------------------------------------------
Processing file: [05. Orange Chocolate Mint Medicine In G Humor.wav]
------------------------------------------------------------
This track looks like CDDA with probability 100%
------------------------------------------------------------
Processing file: [06. Brahms' Lullaby (The Way I Hear It!).wav]
------------------------------------------------------------
This track looks like CDDA with probability 100%
------------------------------------------------------------
Processing file: [07. Healing In The Name Of 'I Love You!'.wav]
------------------------------------------------------------
This track looks like MPEG with probability 100%
------------------------------------------------------------
Final Conclusion:
------------------------------------------------------------
Could not qualify the source of these tracks.
Доп. информация:
 
Album Info
Produced by Tisziji Munoz
All compositions by Tisziji Munoz with the exception of 6. by Johannes Brahms
Art direction by Tisziji Munoz
Graphic layout by Mike Munoz and Lydia Lunch
Cover photo by Ananda Munoz Kritsky
All other photos by Nancy Munoz
Recorded on March 18, 2000 at Nevessa Recording Studio, Woodstock, NY
Mixed and mastered by Mike Munoz
Assistant engineer: Chris Andersen
"The healing power of music. Healing for all of us in the studio. The music reached out and fixed any problems that we were having with the session. The continued healing action of that session in some of our lives since has been remarked upon. Just listen to the duets of Muñoz and Crispell that open and close this CD. Does it touch your heart? That is the healing energy of music. To me, that is a quantifiable, real thing. I'm sure Tisziji titled this project AUSPICIOUS HEALING because that was the main message of the music.
"The phenomena of Tisziji. Hey, he's the real thing! A musical master and a wise and compassionate man. As a leader, he got the group to transcend itself. As a guitarist, I watched and heard him create incredible music through his instrument as if the guitar were invisible. When Tisziji plays he invokes new lines and ideas of that moment. He does not play licks or prepared ideas, he reaches out there and grabs new things and lays them out for us to hear, with humor, passion, severity, playfulness and warmth. He is one of a handful of jazz players who is not afraid to play the truth as it comes to him. When you see and hear him play you can feel that the walls between this world and other worlds are just a bit thinner for you, the listener. The music from this session illuminates for me a bit more of that intangible, spiritual side of music-making than many other projects I have been involved with. I point it out so explicitly here because I hope that you will enjoy it in that context." -Henry Kaiser
 
Состав
Tisziji Munoz: guitar, synths (5)
Marilyn Crispell: piano
Henry Kaiser: guitar, guitar FX
Mark Dresser: bass
Lukas Ligeti: drums
По всем вопросам пишите личное сообщение пользователю M0p94ok.
20:14
140
Нет комментариев. Ваш будет первым!