Вы используете незарегистрированную версию компонента "Вкладки"!

Поиск

(Free Jazz, Avant-Garde Jazz) Tisziji Munoz (w/ Dave Liebman, Rashied Ali, Don Pate) - The Hu-Man Spirit (2CD) - 2000, FLAC (tracks+.cue), lossless

(Free Jazz, Avant-Garde Jazz) Tisziji Munoz (w/ Dave Liebman, Rashied Ali, Don Pate) - The Hu-Man Spirit (2CD) - 2000, FLAC (tracks+.cue), lossless
Треклист:
Tisziji Munoz / The Hu-Man Spirit (2CD)
Жанр: Free Jazz, Avant-Garde Jazz
Страна-производитель диска: US
Год издания: 2000
Издатель (лейбл): Anami Music
Номер по каталогу: AM021
Страна: US
Аудиокодек: FLAC (*.flac)
Тип рипа: tracks+.cue
Битрейт аудио: lossless
Продолжительность: 59:16 + 64:53
Источник (релизер): свой фирменный диск
Наличие сканов в содержимом раздачи:
Треклист:
 
CD1
1. The Joy Of Freedom 9:47
2. The Hu-Man Spirit 17:09
3. Only If You Dare! 6:41
4. Children Of Fallen Trees 2:51
5. Stark Naked 4:55
6. Memorial At Love's Zenith 17:40
 
CD2
1. Passing The Valley Of Sorrow 11:18
2. Austerity 8:01
3. When I Am Gone 8:04
4. On Fire! 14:06
5. Expression 16:15
6. Fatherhood 6:53
 
Лог создания рипа
 
CD1
Exact Audio Copy V1.0 beta 3 from 29. August 2011
EAC extraction logfile from 5. November 2013, 20:42
Tisziji Munoz / The Hu-Man Spirit CD 1
Used drive : PIONEER DVD-RW DVR-115D Adapter: 0 ID: 0
Read mode : Secure
Utilize accurate stream : Yes
Defeat audio cache : Yes
Make use of C2 pointers : No
Read offset correction : 48
Overread into Lead-In and Lead-Out : No
Fill up missing offset samples with silence : Yes
Delete leading and trailing silent blocks : No
Null samples used in CRC calculations : Yes
Used interface : Installed external ASPI interface
Gap handling : Appended to previous track
Used output format : User Defined Encoder
Selected bitrate : 896 kBit/s
Quality : High
Add ID3 tag : No
Command line compressor : C:\Program Files\Exact Audio Copy\FLAC\FLAC.EXE
Additional command line options : -6 -V -T "ARTIST=%artist%" -T "TITLE=%title%" -T "ALBUM=%albumtitle%" -T "DATE=%year%" -T "TRACKNUMBER=%tracknr%" -T "GENRE=%genre%" -T "COMMENT=%comment%" -T "BAND=%albuminterpret%" -T "COMPOSER=%composer%" %haslyrics%--tag-from-file=LYRICS="%lyricsfile%"%haslyrics% -T "DISCNUMBER=%cdnumber%" -T "TOTALDISCS=%totalcds%" -T "TOTALTRACKS=%numtracks%" %hascover%--picture="%coverfile%"%hascover% %source% -o %dest%
TOC of the extracted CD
Track | Start | Length | Start sector | End sector
---------------------------------------------------------
1 | 0:00.00 | 9:50.00 | 0 | 44249
2 | 9:50.00 | 17:11.31 | 44250 | 121605
3 | 27:01.31 | 6:43.41 | 121606 | 151871
4 | 33:44.72 | 2:53.48 | 151872 | 164894
5 | 36:38.45 | 4:58.00 | 164895 | 187244
6 | 41:36.45 | 17:40.17 | 187245 | 266761
Track 1
Filename D:\zzz\01 - The Joy Of Freedom.wav
Pre-gap length 0:00:02.00
Peak level 97.2 %
Extraction speed 5.0 X
Track quality 100.0 %
Test CRC 339E6C18
Copy CRC 339E6C18
Track not present in AccurateRip database
Copy OK
Track 2
Filename D:\zzz\02 - The Hu-Man Spirit.wav
Pre-gap length 0:00:03.00
Peak level 97.5 %
Extraction speed 6.4 X
Track quality 100.0 %
Test CRC E0CA0489
Copy CRC E0CA0489
Track not present in AccurateRip database
Copy OK
Track 3
Filename D:\zzz\03 - Only If You Dare!.wav
Pre-gap length 0:00:03.01
Peak level 97.2 %
Extraction speed 7.0 X
Track quality 100.0 %
Test CRC BAE1323D
Copy CRC BAE1323D
Track not present in AccurateRip database
Copy OK
Track 4
Filename D:\zzz\04 - Children Of Fallen Trees.wav
Pre-gap length 0:00:03.00
Peak level 97.2 %
Extraction speed 5.6 X
Track quality 99.9 %
Test CRC D9D96622
Copy CRC D9D96622
Track not present in AccurateRip database
Copy OK
Track 5
Filename D:\zzz\05 - Stark Naked.wav
Pre-gap length 0:00:02.27
Peak level 97.2 %
Extraction speed 7.4 X
Track quality 100.0 %
Test CRC CC6E1B70
Copy CRC CC6E1B70
Track not present in AccurateRip database
Copy OK
Track 6
Filename D:\zzz\06 - Memorial At Love's Zenith.wav
Pre-gap length 0:00:03.00
Peak level 97.2 %
Extraction speed 8.6 X
Track quality 100.0 %
Test CRC 72D4DC7A
Copy CRC 72D4DC7A
Track not present in AccurateRip database
Copy OK
None of the tracks are present in the AccurateRip database
No errors occurred
End of status report
==== Log checksum EAC83C591612298EA3DE09CE7F79CA8B50494BB68ABEF099D7231BBCCE523130 ====
 
CD2
Exact Audio Copy V1.0 beta 3 from 29. August 2011
EAC extraction logfile from 5. November 2013, 21:05
Tisziji Munoz / The Hu-Man Spirit CD2
Used drive : PIONEER DVD-RW DVR-115D Adapter: 0 ID: 0
Read mode : Secure
Utilize accurate stream : Yes
Defeat audio cache : Yes
Make use of C2 pointers : No
Read offset correction : 48
Overread into Lead-In and Lead-Out : No
Fill up missing offset samples with silence : Yes
Delete leading and trailing silent blocks : No
Null samples used in CRC calculations : Yes
Used interface : Installed external ASPI interface
Gap handling : Appended to previous track
Used output format : User Defined Encoder
Selected bitrate : 896 kBit/s
Quality : High
Add ID3 tag : No
Command line compressor : C:\Program Files\Exact Audio Copy\FLAC\FLAC.EXE
Additional command line options : -6 -V -T "ARTIST=%artist%" -T "TITLE=%title%" -T "ALBUM=%albumtitle%" -T "DATE=%year%" -T "TRACKNUMBER=%tracknr%" -T "GENRE=%genre%" -T "COMMENT=%comment%" -T "BAND=%albuminterpret%" -T "COMPOSER=%composer%" %haslyrics%--tag-from-file=LYRICS="%lyricsfile%"%haslyrics% -T "DISCNUMBER=%cdnumber%" -T "TOTALDISCS=%totalcds%" -T "TOTALTRACKS=%numtracks%" %hascover%--picture="%coverfile%"%hascover% %source% -o %dest%
TOC of the extracted CD
Track | Start | Length | Start sector | End sector
---------------------------------------------------------
1 | 0:00.00 | 11:21.00 | 0 | 51074
2 | 11:21.00 | 8:03.74 | 51075 | 87373
3 | 19:24.74 | 8:08.00 | 87374 | 123973
4 | 27:32.74 | 14:09.00 | 123974 | 187648
5 | 41:41.74 | 16:18.22 | 187649 | 261020
6 | 58:00.21 | 6:53.37 | 261021 | 292032
Track 1
Filename D:\zzz\01 - Passing The Valley Of Sorrow.wav
Pre-gap length 0:00:02.00
Peak level 97.6 %
Extraction speed 5.0 X
Track quality 100.0 %
Test CRC 32392C2F
Copy CRC 32392C2F
Track not present in AccurateRip database
Copy OK
Track 2
Filename D:\zzz\02 - Austerity.wav
Pre-gap length 0:00:03.01
Peak level 97.2 %
Extraction speed 5.9 X
Track quality 100.0 %
Test CRC 47003F9B
Copy CRC 47003F9B
Track not present in AccurateRip database
Copy OK
Track 3
Filename D:\zzz\03 - When I Am Gone.wav
Pre-gap length 0:00:03.00
Peak level 97.2 %
Extraction speed 6.2 X
Track quality 99.9 %
Test CRC 8F84C92F
Copy CRC 8F84C92F
Track not present in AccurateRip database
Copy OK
Track 4
Filename D:\zzz\04 - On Fire!.wav
Pre-gap length 0:00:03.01
Peak level 97.2 %
Extraction speed 7.5 X
Track quality 100.0 %
Test CRC 81CE41F2
Copy CRC 81CE41F2
Track not present in AccurateRip database
Copy OK
Track 5
Filename D:\zzz\05 - Expression.wav
Pre-gap length 0:00:03.01
Peak level 97.2 %
Extraction speed 8.5 X
Track quality 100.0 %
Test CRC 71527544
Copy CRC 71527544
Track not present in AccurateRip database
Copy OK
Track 6
Filename D:\zzz\06 - Fatherhood.wav
Pre-gap length 0:00:03.01
Peak level 86.6 %
Extraction speed 8.7 X
Track quality 100.0 %
Test CRC 20790A87
Copy CRC 20790A87
Track not present in AccurateRip database
Copy OK
None of the tracks are present in the AccurateRip database
No errors occurred
End of status report
==== Log checksum 3D5527CB4E18B507FF1CABE8E0CD98102AE9557E1A8BD12E8E42547F6A3472C4 ====
 
Содержание индексной карты (.CUE)
 
CD1
REM GENRE "Avant-Garde Jazz"
REM DATE 2000
REM DISCID 430DE406
REM COMMENT "ExactAudioCopy v1.0b3"
PERFORMER "Tisziji Munoz"
TITLE "The Hu-Man Spirit CD 1"
FILE "01 - The Joy Of Freedom.wav" WAVE
TRACK 01 AUDIO
TITLE "The Joy Of Freedom"
PERFORMER "Tisziji Munoz"
INDEX 01 00:00:00
TRACK 02 AUDIO
TITLE "The Hu-Man Spirit"
PERFORMER "Tisziji Munoz"
INDEX 00 09:47:00
FILE "02 - The Hu-Man Spirit.wav" WAVE
INDEX 01 00:00:00
TRACK 03 AUDIO
TITLE "Only If You Dare!"
PERFORMER "Tisziji Munoz"
INDEX 00 17:08:30
FILE "03 - Only If You Dare!.wav" WAVE
INDEX 01 00:00:00
TRACK 04 AUDIO
TITLE "Children Of Fallen Trees"
PERFORMER "Tisziji Munoz"
INDEX 00 06:40:41
FILE "04 - Children Of Fallen Trees.wav" WAVE
INDEX 01 00:00:00
TRACK 05 AUDIO
TITLE "Stark Naked"
PERFORMER "Tisziji Munoz"
INDEX 00 02:51:21
FILE "05 - Stark Naked.wav" WAVE
INDEX 01 00:00:00
TRACK 06 AUDIO
TITLE "Memorial At Love's Zenith"
PERFORMER "Tisziji Munoz"
INDEX 00 04:55:00
FILE "06 - Memorial At Love's Zenith.wav" WAVE
INDEX 01 00:00:00
 
CD2
REM GENRE "Avant-Garde Jazz"
REM DATE 2000
REM DISCID 4C0F3506
REM COMMENT "ExactAudioCopy v1.0b3"
PERFORMER "Tisziji Munoz"
TITLE "The Hu-Man Spirit CD2"
FILE "01 - Passing The Valley Of Sorrow.wav" WAVE
TRACK 01 AUDIO
TITLE "Passing The Valley Of Sorrow"
PERFORMER "Tisziji Munoz"
INDEX 01 00:00:00
TRACK 02 AUDIO
TITLE "Austerity"
PERFORMER "Tisziji Munoz"
INDEX 00 11:17:74
FILE "02 - Austerity.wav" WAVE
INDEX 01 00:00:00
TRACK 03 AUDIO
TITLE "When I Am Gone"
PERFORMER "Tisziji Munoz"
INDEX 00 08:00:74
FILE "03 - When I Am Gone.wav" WAVE
INDEX 01 00:00:00
TRACK 04 AUDIO
TITLE "On Fire!"
PERFORMER "Tisziji Munoz"
INDEX 00 08:04:74
FILE "04 - On Fire!.wav" WAVE
INDEX 01 00:00:00
TRACK 05 AUDIO
TITLE "Expression"
PERFORMER "Tisziji Munoz"
INDEX 00 14:05:74
FILE "05 - Expression.wav" WAVE
INDEX 01 00:00:00
TRACK 06 AUDIO
TITLE "Fatherhood"
PERFORMER "Tisziji Munoz"
INDEX 00 16:15:21
FILE "06 - Fatherhood.wav" WAVE
INDEX 01 00:00:00
 
Лог проверки качества
d:\>d:\aucdtect -d/-m0 d:\zzz\*.wav
auCDtect: CD records authenticity detector, version 0.8.2
Copyright (c) 2004 Oleg Berngardt. All rights reserved.
Copyright (c) 2004 Alexander Djourik. All rights reserved.
------------------------------------------------------------
Processing file: [01. Passing The Valley Of Sorrow.wav]
------------------------------------------------------------
This track looks like CDDA with probability 100%
------------------------------------------------------------
Processing file: [01. The Joy Of Freedom.wav]
------------------------------------------------------------
This track looks like CDDA with probability 100%
------------------------------------------------------------
Processing file: [02. Austerity.wav]
------------------------------------------------------------
This track looks like CDDA with probability 100%
------------------------------------------------------------
Processing file: [02. The Hu-Man Spirit.wav]
------------------------------------------------------------
This track looks like CDDA with probability 99%
------------------------------------------------------------
Processing file: [03. Only If You Dare!.wav]
------------------------------------------------------------
This track looks like CDDA with probability 100%
------------------------------------------------------------
Processing file: [03. When I Am Gone.wav]
------------------------------------------------------------
This track looks like CDDA with probability 100%
------------------------------------------------------------
Processing file: [04. Children Of Fallen Trees.wav]
------------------------------------------------------------
This track looks like CDDA with probability 100%
------------------------------------------------------------
Processing file: [04. On Fire!.wav]
------------------------------------------------------------
This track looks like CDDA with probability 100%
------------------------------------------------------------
Processing file: [05. Expression.wav]
------------------------------------------------------------
This track looks like CDDA with probability 100%
------------------------------------------------------------
Processing file: [05. Stark Naked.wav]
------------------------------------------------------------
This track looks like CDDA with probability 99%
------------------------------------------------------------
Processing file: [06. Fatherhood.wav]
------------------------------------------------------------
This track looks like CDDA with probability 92%
------------------------------------------------------------
Processing file: [06. Memorial At Love's Zenith.wav]
------------------------------------------------------------
This track looks like CDDA with probability 100%
------------------------------------------------------------
Final Conclusion:
------------------------------------------------------------
These tracks looks like CDDA with probability 100%
Доп. информация:
 
Album Info
(Tisziji Munoz except 2.5, composed by John Coltrane and arranged by Dave Liebman)
Produced and arranged by Tisziji Munoz
Art direction by Tisziji Munoz
Graphic layout by Mike Munoz
Cover backgrounds "While Flying Over Tibet" and "Tisziji In The Light" photos by Nancy Munoz
Group photos by Mike Munoz
Recorded on November 9, 2000 at Right Track Recording Studios in NYC
Mixed and mastered by Mike Munoz
"Beautiful man. Thank you so much, Tisziji, for calling me to play this date with you and these great cats." -John Lockwood
"Tisziji, your music is beautiful. There's no more after this. Nobody else is playing at your level of spiritual freedom and feeling. From the beginning, I sensed you were that kind of Spirit. You always did your own thing and you were always a fine player. You know what you are here to do and what you need to play. You are not controlled by the music." -Dave Liebman
 
Состав
Tisziji Munoz: guitars, bells, synth, flutes and scream
Rashied Ali: drums
Dave Liebman: saxophones and flute solo
Don Pate: bass
John Lockwood: bass
Bernie Senensky: piano
Any questions -> support@pro-jazz.com. По всем вопросам пишите -> support@pro-jazz.com
20:16
186
Нет комментариев. Ваш будет первым!