Вы используете незарегистрированную версию компонента "Вкладки"!

Поиск

(Free Jazz, Avant-Garde Jazz, pfMENTUM) [CD] Hal Onserud (w/ Colter Frazier, Rami Gabriel, Rob Wallace) - Hal 2008 - 2008, FLAC (tracks+.cue), lossless

(Free Jazz, Avant-Garde Jazz, pfMENTUM) [CD] Hal Onserud (w/ Colter Frazier, Rami Gabriel, Rob Wallace) - Hal 2008 - 2008, FLAC (tracks+.cue), lossless
Треклист:
Hal Onserud / Hal 2008
Жанр: Free Jazz, Avant-Garde Jazz, pfMENTUM
Носитель: CD
Страна-производитель диска: US
Год издания: 2008
Издатель (лейбл): pfMENTUM
Номер по каталогу: CD056
Страна: US
Аудиокодек: FLAC (*.flac)
Тип рипа: tracks+.cue
Битрейт аудио: lossless
Продолжительность: 78:11
Источник (релизер): свой фирменный диск
Наличие сканов в содержимом раздачи:
Треклист:
1. Looking Out The Window 7:35
2. Homespun Yarns 5:24
3. How Aware Are You? 3:08
4. Clean Slate 7:18
5. Crispy Critters 4:52
6. Take Over 6:06
7. Five Dees 4:52
8. Greens And Blues 6:25
9. It'll Be Okay 10:06
10. Hortense 3:51
11. Homeless Guy 3:51
12. Population 5:29
13. Shadeless Tree 5:41
 
Лог создания рипа
Exact Audio Copy V1.0 beta 3 from 29. August 2011
EAC extraction logfile from 21. February 2014, 19:23
Hal Onserud / Hal 2008
Used drive : PIONEER DVD-RW DVR-115D Adapter: 0 ID: 0
Read mode : Secure
Utilize accurate stream : Yes
Defeat audio cache : Yes
Make use of C2 pointers : No
Read offset correction : 48
Overread into Lead-In and Lead-Out : No
Fill up missing offset samples with silence : Yes
Delete leading and trailing silent blocks : No
Null samples used in CRC calculations : Yes
Used interface : Installed external ASPI interface
Gap handling : Appended to previous track
Used output format : User Defined Encoder
Selected bitrate : 896 kBit/s
Quality : High
Add ID3 tag : No
Command line compressor : C:\Program Files\Exact Audio Copy\FLAC\FLAC.EXE
Additional command line options : -6 -V -T "ARTIST=%artist%" -T "TITLE=%title%" -T "ALBUM=%albumtitle%" -T "DATE=%year%" -T "TRACKNUMBER=%tracknr%" -T "GENRE=%genre%" -T "COMMENT=%comment%" -T "BAND=%albuminterpret%" -T "COMPOSER=%composer%" %haslyrics%--tag-from-file=LYRICS="%lyricsfile%"%haslyrics% -T "DISCNUMBER=%cdnumber%" -T "TOTALDISCS=%totalcds%" -T "TOTALTRACKS=%numtracks%" %hascover%--picture="%coverfile%"%hascover% %source% -o %dest%
TOC of the extracted CD
Track | Start | Length | Start sector | End sector
---------------------------------------------------------
1 | 0:00.00 | 7:37.58 | 0 | 34332
2 | 7:37.58 | 5:27.15 | 34333 | 58872
3 | 13:04.73 | 3:10.56 | 58873 | 73178
4 | 16:15.54 | 7:20.39 | 73179 | 106217
5 | 23:36.18 | 4:55.24 | 106218 | 128366
6 | 28:31.42 | 6:08.66 | 128367 | 156032
7 | 34:40.33 | 4:54.42 | 156033 | 178124
8 | 39:35.00 | 6:28.27 | 178125 | 207251
9 | 46:03.27 | 10:09.14 | 207252 | 252940
10 | 56:12.41 | 6:49.72 | 252941 | 283687
11 | 63:02.38 | 3:54.10 | 283688 | 301247
12 | 66:56.48 | 5:31.53 | 301248 | 326125
13 | 72:28.26 | 5:43.12 | 326126 | 351862
Track 1
Filename D:\zzz\01 - Looking Out The Window.wav
Pre-gap length 0:00:02.00
Peak level 96.6 %
Extraction speed 5.2 X
Track quality 100.0 %
Test CRC B102361C
Copy CRC B102361C
Track not present in AccurateRip database
Copy OK
Track 2
Filename D:\zzz\02 - Homespun Yarns.wav
Pre-gap length 0:00:03.00
Peak level 58.6 %
Extraction speed 5.8 X
Track quality 100.0 %
Test CRC 71DC6316
Copy CRC 71DC6316
Track not present in AccurateRip database
Copy OK
Track 3
Filename D:\zzz\03 - How Aware Are You.wav
Pre-gap length 0:00:03.00
Peak level 85.1 %
Extraction speed 5.7 X
Track quality 100.0 %
Test CRC BADF0EBE
Copy CRC BADF0EBE
Track not present in AccurateRip database
Copy OK
Track 4
Filename D:\zzz\04 - Clean Slate.wav
Pre-gap length 0:00:03.00
Peak level 96.6 %
Extraction speed 6.2 X
Track quality 99.9 %
Test CRC 5F1D1038
Copy CRC 5F1D1038
Track not present in AccurateRip database
Copy OK
Track 5
Filename D:\zzz\05 - Crispy Critters.wav
Pre-gap length 0:00:03.00
Peak level 96.6 %
Extraction speed 6.8 X
Track quality 100.0 %
Test CRC 1B89E584
Copy CRC 1B89E584
Track not present in AccurateRip database
Copy OK
Track 6
Filename D:\zzz\06 - Take Over.wav
Pre-gap length 0:00:03.00
Peak level 96.6 %
Extraction speed 7.3 X
Track quality 100.0 %
Test CRC A54FFE32
Copy CRC A54FFE32
Track not present in AccurateRip database
Copy OK
Track 7
Filename D:\zzz\07 - Five Dees.wav
Pre-gap length 0:00:03.00
Peak level 96.6 %
Extraction speed 7.6 X
Track quality 100.0 %
Test CRC 9127B896
Copy CRC 9127B896
Track not present in AccurateRip database
Copy OK
Track 8
Filename D:\zzz\08 - Greens And Blues.wav
Pre-gap length 0:00:03.00
Peak level 96.6 %
Extraction speed 8.1 X
Track quality 100.0 %
Test CRC D23677DA
Copy CRC D23677DA
Track not present in AccurateRip database
Copy OK
Track 9
Filename D:\zzz\09 - It'll Be Okay.wav
Pre-gap length 0:00:03.00
Peak level 96.6 %
Extraction speed 8.5 X
Track quality 99.9 %
Test CRC 8C908675
Copy CRC 8C908675
Track not present in AccurateRip database
Copy OK
Track 10
Filename D:\zzz\10 - Hortense.wav
Pre-gap length 0:00:03.00
Peak level 96.6 %
Extraction speed 9.1 X
Track quality 100.0 %
Test CRC E41621AD
Copy CRC E41621AD
Track not present in AccurateRip database
Copy OK
Track 11
Filename D:\zzz\11 - Homeless Guy.wav
Pre-gap length 0:00:03.00
Peak level 96.6 %
Extraction speed 8.7 X
Track quality 100.0 %
Test CRC 55277377
Copy CRC 55277377
Track not present in AccurateRip database
Copy OK
Track 12
Filename D:\zzz\12 - Population.wav
Pre-gap length 0:00:03.00
Peak level 96.6 %
Extraction speed 9.3 X
Track quality 100.0 %
Test CRC 5EFEE28D
Copy CRC 5EFEE28D
Track not present in AccurateRip database
Copy OK
Track 13
Filename D:\zzz\13 - Shadeless Tree.wav
Pre-gap length 0:00:03.00
Peak level 96.6 %
Extraction speed 9.6 X
Track quality 100.0 %
Test CRC 6D440632
Copy CRC 6D440632
Track not present in AccurateRip database
Copy OK
None of the tracks are present in the AccurateRip database
No errors occurred
End of status report
==== Log checksum ABFECC6F5411955A1D2DC5598CE6B08382CCFA5036DD37CF1426F65839B37BB4 ====
 
Содержание индексной карты (.CUE)
REM GENRE "Free Improvisation"
REM DATE 2008
REM DISCID CD12530D
REM COMMENT "ExactAudioCopy v1.0b3"
PERFORMER "Hal Onserud"
TITLE "Hal 2008"
FILE "01 - Looking Out The Window.wav" WAVE
TRACK 01 AUDIO
TITLE "Looking Out The Window"
PERFORMER "Hal Onserud"
INDEX 01 00:00:00
TRACK 02 AUDIO
TITLE "Homespun Yarns"
PERFORMER "Hal Onserud"
INDEX 00 07:34:58
FILE "02 - Homespun Yarns.wav" WAVE
INDEX 01 00:00:00
TRACK 03 AUDIO
TITLE "How Aware Are You?"
PERFORMER "Hal Onserud"
INDEX 00 05:24:15
FILE "03 - How Aware Are You.wav" WAVE
INDEX 01 00:00:00
TRACK 04 AUDIO
TITLE "Clean Slate"
PERFORMER "Hal Onserud"
INDEX 00 03:07:56
FILE "04 - Clean Slate.wav" WAVE
INDEX 01 00:00:00
TRACK 05 AUDIO
TITLE "Crispy Critters"
PERFORMER "Hal Onserud"
INDEX 00 07:17:39
FILE "05 - Crispy Critters.wav" WAVE
INDEX 01 00:00:00
TRACK 06 AUDIO
TITLE "Take Over"
PERFORMER "Hal Onserud"
INDEX 00 04:52:24
FILE "06 - Take Over.wav" WAVE
INDEX 01 00:00:00
TRACK 07 AUDIO
TITLE "Five Dees"
PERFORMER "Hal Onserud"
INDEX 00 06:05:66
FILE "07 - Five Dees.wav" WAVE
INDEX 01 00:00:00
TRACK 08 AUDIO
TITLE "Greens And Blues"
PERFORMER "Hal Onserud"
INDEX 00 04:51:42
FILE "08 - Greens And Blues.wav" WAVE
INDEX 01 00:00:00
TRACK 09 AUDIO
TITLE "It'll Be Okay"
PERFORMER "Hal Onserud"
INDEX 00 06:25:27
FILE "09 - It'll Be Okay.wav" WAVE
INDEX 01 00:00:00
TRACK 10 AUDIO
TITLE "Hortense"
PERFORMER "Hal Onserud"
INDEX 00 10:06:14
FILE "10 - Hortense.wav" WAVE
INDEX 01 00:00:00
TRACK 11 AUDIO
TITLE "Homeless Guy"
PERFORMER "Hal Onserud"
INDEX 00 06:46:72
FILE "11 - Homeless Guy.wav" WAVE
INDEX 01 00:00:00
TRACK 12 AUDIO
TITLE "Population"
PERFORMER "Hal Onserud"
INDEX 00 03:51:10
FILE "12 - Population.wav" WAVE
INDEX 01 00:00:00
TRACK 13 AUDIO
TITLE "Shadeless Tree"
PERFORMER "Hal Onserud"
INDEX 00 05:28:53
FILE "13 - Shadeless Tree.wav" WAVE
INDEX 01 00:00:00
 
Лог проверки качества
d:\>d:\aucdtect -d/-m0 d:\zzz\*.wav
auCDtect: CD records authenticity detector, version 0.8.2
Copyright (c) 2004 Oleg Berngardt. All rights reserved.
Copyright (c) 2004 Alexander Djourik. All rights reserved.
------------------------------------------------------------
Processing file: [01. Looking Out The Window.wav]
------------------------------------------------------------
This track looks like CDDA with probability 100%
------------------------------------------------------------
Processing file: [02. Homespun Yarns.wav]
------------------------------------------------------------
This track looks like CDDA with probability 99%
------------------------------------------------------------
Processing file: [03. How Aware Are You.wav]
------------------------------------------------------------
This track looks like CDDA with probability 100%
------------------------------------------------------------
Processing file: [04. Clean Slate.wav]
------------------------------------------------------------
This track looks like CDDA with probability 100%
------------------------------------------------------------
Processing file: [05. Crispy Critters.wav]
------------------------------------------------------------
This track looks like CDDA with probability 100%
------------------------------------------------------------
Processing file: [06. Take Over.wav]
------------------------------------------------------------
This track looks like CDDA with probability 100%
------------------------------------------------------------
Processing file: [07. Five Dees.wav]
------------------------------------------------------------
This track looks like CDDA with probability 99%
------------------------------------------------------------
Processing file: [08. Greens And Blues.wav]
------------------------------------------------------------
This track looks like CDDA with probability 100%
------------------------------------------------------------
Processing file: [09. It'll Be Okay.wav]
------------------------------------------------------------
This track looks like CDDA with probability 100%
------------------------------------------------------------
Processing file: [10. Hortense.wav]
------------------------------------------------------------
This track looks like CDDA with probability 100%
------------------------------------------------------------
Processing file: [11. Homeless Guy.wav]
------------------------------------------------------------
This track looks like CDDA with probability 100%
------------------------------------------------------------
Processing file: [12. Population.wav]
------------------------------------------------------------
This track looks like CDDA with probability 100%
------------------------------------------------------------
Processing file: [13. Shadeless Tree.wav]
------------------------------------------------------------
This track looks like CDDA with probability 99%
------------------------------------------------------------
Final Conclusion:
------------------------------------------------------------
These tracks looks like CDDA with probability 100%
Доп. информация:
 
Album Info & Review
All the pieces on this CD are composed and written by Hal Onserud and played in an improvised format featuring all the players. The pieces were written between the late 1970s and 2008, and reveal everything and nothing about Hal.
Recorded at UCSB Sound Recording
Kevin Kelly: recording engineer
Santa Barbara, CA 7-16-08
Produced by Hal Onserud
Mixing/mastering by Wayne Peet, Newzone Studio, Los Angeles
Art: Kathleen Baushke
Photography: Rob Wallace
Hal Onserud plays a fine bass , he also composed all the tracks here which are improvised as they are played by these Santa Barbara musicians. On all tracks except 7, Onserud’s “vocals” are featured in stream of poetic, raving, musing, rhyming observations. He’s not much of a singer, but the sentiments are affecting. Very experimental, wholly original, strange sounds. (spidey.kfjc.org)
 
Состав
Hal Onserud: bass, vocals, ocarina
Colter Frazier: tenor saxophone
Rami Gabriel: electric & acoustic guitars and various percussion
Rob Wallace: drums, percussion, vocals
Any questions -> support@pro-jazz.com. По всем вопросам пишите -> support@pro-jazz.com
00:03
152
Нет комментариев. Ваш будет первым!