Вы используете незарегистрированную версию компонента "Вкладки"!

Поиск

(Avant-Garde Jazz, Big Band, Free Jazz) [CD] Paul Dunmall Moksha Big Band - I Wish You Peace - 2004, FLAC (tracks), lossless

(Avant-Garde Jazz, Big Band, Free Jazz) [CD] Paul Dunmall Moksha Big Band - I Wish You Peace - 2004, FLAC (tracks), lossless
Треклист:
Paul Dunmall Moksha Big Band / I Wish You Peace
Жанр: Avant-Garde Jazz, Big Band, Free Jazz
Носитель: CD
Страна-производитель диска: US
Год издания: 2004
Издатель (лейбл): Cuneiform Records
Номер по каталогу: Rune 203
Страна: UK
Аудиокодек: FLAC (*.flac)
Тип рипа: tracks
Битрейт аудио: lossless
Продолжительность: 53:52
Источник (релизер): свой фирменный диск
Наличие сканов в содержимом раздачи:
Треклист:
1. Part One 13:21
2. Part Two 21:25
3. Part Three 19:05
 
Лог создания рипа
Exact Audio Copy V1.0 beta 3 from 29. August 2011
EAC extraction logfile from 20. February 2014, 20:50
Paul Dunmall Moksha Big Band / I Wish You Peace
Used drive : PIONEER DVD-RW DVR-115D Adapter: 0 ID: 0
Read mode : Secure
Utilize accurate stream : Yes
Defeat audio cache : Yes
Make use of C2 pointers : No
Read offset correction : 48
Overread into Lead-In and Lead-Out : No
Fill up missing offset samples with silence : Yes
Delete leading and trailing silent blocks : No
Null samples used in CRC calculations : Yes
Used interface : Installed external ASPI interface
Gap handling : Appended to previous track
Used output format : User Defined Encoder
Selected bitrate : 896 kBit/s
Quality : High
Add ID3 tag : No
Command line compressor : C:\Program Files\Exact Audio Copy\FLAC\FLAC.EXE
Additional command line options : -6 -V -T "ARTIST=%artist%" -T "TITLE=%title%" -T "ALBUM=%albumtitle%" -T "DATE=%year%" -T "TRACKNUMBER=%tracknr%" -T "GENRE=%genre%" -T "COMMENT=%comment%" -T "BAND=%albuminterpret%" -T "COMPOSER=%composer%" %haslyrics%--tag-from-file=LYRICS="%lyricsfile%"%haslyrics% -T "DISCNUMBER=%cdnumber%" -T "TOTALDISCS=%totalcds%" -T "TOTALTRACKS=%numtracks%" %hascover%--picture="%coverfile%"%hascover% %source% -o %dest%
TOC of the extracted CD
Track | Start | Length | Start sector | End sector
---------------------------------------------------------
1 | 0:00.00 | 13:21.49 | 0 | 60123
2 | 13:21.49 | 21:25.55 | 60124 | 156553
3 | 34:47.29 | 19:05.37 | 156554 | 242465
Track 1
Filename D:\zzz\01 - Part One.wav
Pre-gap length 0:00:02.00
Peak level 100.0 %
Extraction speed 5.1 X
Track quality 100.0 %
Test CRC E20263EA
Copy CRC E20263EA
Accurately ripped (confidence 1) [408C2545] (AR v1)
Copy OK
Track 2
Filename D:\zzz\02 - Part Two.wav
Peak level 100.0 %
Extraction speed 6.8 X
Track quality 100.0 %
Test CRC 2997CE00
Copy CRC 2997CE00
Accurately ripped (confidence 1) [3373F631] (AR v1)
Copy OK
Track 3
Filename D:\zzz\03 - Part Three.wav
Peak level 100.0 %
Extraction speed 8.1 X
Track quality 100.0 %
Test CRC 8442BA68
Copy CRC 8442BA68
Accurately ripped (confidence 2) [FBAAD9E4] (AR v1)
Copy OK
All tracks accurately ripped
No errors occurred
End of status report
==== Log checksum 3646BB157A2211749AF3E84CED8541CECE2C666AAF15D4977D9AE990EBFFF644 ====
 
Содержание индексной карты (.CUE)
REM GENRE "Big Band, British Jazz"
REM DATE 2004
REM DISCID 200CA003
REM COMMENT "ExactAudioCopy v1.0b3"
PERFORMER "Paul Dunmall Moksha Big Band"
TITLE "I Wish You Peace"
FILE "01 - Part One.wav" WAVE
TRACK 01 AUDIO
TITLE "Part One"
PERFORMER "Paul Dunmall Moksha Big Band"
INDEX 01 00:00:00
FILE "02 - Part Two.wav" WAVE
TRACK 02 AUDIO
TITLE "Part Two"
PERFORMER "Paul Dunmall Moksha Big Band"
INDEX 01 00:00:00
FILE "03 - Part Three.wav" WAVE
TRACK 03 AUDIO
TITLE "Part Three"
PERFORMER "Paul Dunmall Moksha Big Band"
INDEX 01 00:00:00
 
Лог проверки качества
d:\>d:\aucdtect -d/-m0 d:\zzz\*.wav
auCDtect: CD records authenticity detector, version 0.8.2
Copyright (c) 2004 Oleg Berngardt. All rights reserved.
Copyright (c) 2004 Alexander Djourik. All rights reserved.
------------------------------------------------------------
Processing file: [01. Part One.wav]
------------------------------------------------------------
This track looks like CDDA with probability 100%
------------------------------------------------------------
Processing file: [02. Part Two.wav]
------------------------------------------------------------
This track looks like CDDA with probability 100%
------------------------------------------------------------
Processing file: [03. Part Three.wav]
------------------------------------------------------------
This track looks like CDDA with probability 100%
------------------------------------------------------------
Final Conclusion:
------------------------------------------------------------
These tracks looks like CDDA with probability 100%
Доп. информация:
 
Album Info & AMG Review
Composed by Paul Dunmall
Recorded at Gateway Studios, Richmond, London, March 29, 2003
Engineer: Steve Lowe
Assistant engineer: Gurjit Dhinsa
Producer: Mat Heywood
Liner notes: Paul Dunmall
Silk paintings: Dorothy Dunmall
Photograph: Peter Symes
Title lettering: Ed Rogers
Package design: David Greenberger
Commissioned by the BBC Radio 3 program Jazz on 3 for Paul Dunmall's 50th birthday, I Wish You Peace is a big-band extravaganza that showcases the sax player's chops as an improviser and composer, but mostly his taste for large-group gestures and larger-than-life music. Since this was going to be a celebration, Dunmall invited a lot of friends, representing most of his recent musical endeavors: the complete lineup of his Octet, the members of Mujician (Keith Tippett, Paul Rogers, and Tony Levin), John Adams and Mark Sanders (with whom he plays in trio), Philip Gibbs (with whom he has a duo, among other things), etc. There were 15 musicians in all, including Brian Irvine, selected to conduct this monstrous band. The only friend missing here is Dunmall's trusty bagpipes (which would have been nice to hear in one of the quieter passages). Titled as a protest to the United States' war on Iraq (and to England's complacency, no doubt), "I Wish You Peace" is a 50-minute work in three movements. The music combines heavy-swinging American free jazz, European free improv, that special kind of avant-garde jazz Chris McGregor developed in England back in the '60s and '70s, and (judging from Simon Picard's tenor sax solo in the third part) a touch of gospel! Dunmall's group music (as the two Paul Dunmall Octet CDs on Cuneiform testify) is fueled by volume: quiet passages are slow, delicate, and highlight Tippett's inside-piano, Gibbs' prepared guitar, and Rogers' gorgeous custom bass, among others. As each movement progresses, the horns pile up; the two drummers get excited; the decibels rise; the playing becomes tense, frantic, urgent; and all of a sudden (even though the listener was acutely aware that something big was preparing to happen) the ensemble literally explodes in a blazing fire of sound. Some will prefer these high-energy moments; others will prefer to focus on Gethin Liddington's incredibly strange (and inspired!) one-way call-and-response game in "Pt. 2" or Rogers' solo at the beginning of "Pt. 3." And a few will simply be thankful that Dunmall, who is such a constantly riveting performer, was given a chance to put together a project of this magnitude.
 
Состав
Paul Dunmall: tenor & soprano saxophones
Gethin Liddington: trumpet
Simon Picard: tenor saxophone
Paul Rutherford: trombone
Chris Bridges: trombone
Paul Rogers: bass
Tony Levin: drums
Mark Sanders: drums
Brian Irvine: conductor
Hilary Jeffery: trombone
Keith Tippett: piano
John Adams: guitar
Howard Cottle: tenor saxophone
Philip Gibbs: guitar, autoharp
David Priseman: trumpet
По всем вопросам пишите личное сообщение пользователю M0p94ok.
00:03
154
Нет комментариев. Ваш будет первым!