Вы используете незарегистрированную версию компонента "Вкладки"!

Поиск

(Free Jazz, Avant-Garde Jazz, Nine Winds) [CD] Ken Filiano - Subvenire - 2002, FLAC (tracks+.cue), lossless

(Free Jazz, Avant-Garde Jazz, Nine Winds) [CD] Ken Filiano - Subvenire - 2002, FLAC (tracks+.cue), lossless
Треклист:
Ken Filiano / Subvenire
Жанр: Free Jazz, Avant-Garde Jazz, Nine Winds
Носитель: CD
Страна-производитель диска: US
Год издания: 2002
Издатель (лейбл): 9 Winds Records
Номер по каталогу: NWCD0223
Страна: US
Аудиокодек: FLAC (*.flac)
Тип рипа: tracks+.cue
Битрейт аудио: lossless
Продолжительность: 58:42
Источник (релизер): свой фирменный диск
Наличие сканов в содержимом раздачи:
Треклист:
1. Water Down Stone 3:43
2. Breathingdreaming 7:33
3. Relay 5:44
4. Lucerne 5:45
5. Non Sequitur 6:28
6. Tangram 3:47
7. Without Words 6:57
8. Crucible / Woman 10:45
9. Dancing Shadows 7:27
 
Лог создания рипа
Exact Audio Copy V1.0 beta 3 from 29. August 2011
EAC extraction logfile from 18. February 2014, 23:04
Ken Filiano / Subvenire
Used drive : PIONEER DVD-RW DVR-115D Adapter: 0 ID: 0
Read mode : Secure
Utilize accurate stream : Yes
Defeat audio cache : Yes
Make use of C2 pointers : No
Read offset correction : 48
Overread into Lead-In and Lead-Out : No
Fill up missing offset samples with silence : Yes
Delete leading and trailing silent blocks : No
Null samples used in CRC calculations : Yes
Used interface : Installed external ASPI interface
Gap handling : Appended to previous track
Used output format : User Defined Encoder
Selected bitrate : 896 kBit/s
Quality : High
Add ID3 tag : No
Command line compressor : C:\Program Files\Exact Audio Copy\FLAC\FLAC.EXE
Additional command line options : -6 -V -T "ARTIST=%artist%" -T "TITLE=%title%" -T "ALBUM=%albumtitle%" -T "DATE=%year%" -T "TRACKNUMBER=%tracknr%" -T "GENRE=%genre%" -T "COMMENT=%comment%" -T "BAND=%albuminterpret%" -T "COMPOSER=%composer%" %haslyrics%--tag-from-file=LYRICS="%lyricsfile%"%haslyrics% -T "DISCNUMBER=%cdnumber%" -T "TOTALDISCS=%totalcds%" -T "TOTALTRACKS=%numtracks%" %hascover%--picture="%coverfile%"%hascover% %source% -o %dest%
TOC of the extracted CD
Track | Start | Length | Start sector | End sector
---------------------------------------------------------
1 | 0:00.00 | 3:43.43 | 0 | 16767
2 | 3:43.43 | 7:36.00 | 16768 | 50967
3 | 11:19.43 | 5:47.20 | 50968 | 77012
4 | 17:06.63 | 5:46.34 | 77013 | 102996
5 | 22:53.22 | 6:40.40 | 102997 | 133036
6 | 29:33.62 | 3:50.20 | 133037 | 150306
7 | 33:24.07 | 7:01.04 | 150307 | 181885
8 | 40:25.11 | 10:47.68 | 181886 | 230478
9 | 51:13.04 | 7:29.01 | 230479 | 264154
Track 1
Filename D:\zzz\01 - Water Down Stone.wav
Pre-gap length 0:00:02.00
Peak level 96.6 %
Extraction speed 4.3 X
Track quality 100.0 %
Test CRC 9436F6E0
Copy CRC 9436F6E0
Accurately ripped (confidence 1) [2698A5A5] (AR v1)
Copy OK
Track 2
Filename D:\zzz\02 - Breathingdreaming.wav
Pre-gap length 0:00:01.00
Peak level 96.6 %
Extraction speed 5.3 X
Track quality 100.0 %
Test CRC 4CF85A66
Copy CRC 4CF85A66
Accurately ripped (confidence 1) [39C6358A] (AR v1)
Copy OK
Track 3
Filename D:\zzz\03 - Relay.wav
Pre-gap length 0:00:03.00
Peak level 96.6 %
Extraction speed 5.3 X
Track quality 99.9 %
Test CRC 2AA66C91
Copy CRC 2AA66C91
Accurately ripped (confidence 1) [F070D2D0] (AR v1)
Copy OK
Track 4
Filename D:\zzz\04 - Lucerne.wav
Pre-gap length 0:00:03.00
Peak level 80.8 %
Extraction speed 6.3 X
Track quality 100.0 %
Test CRC C130E779
Copy CRC C130E779
Accurately ripped (confidence 1) [1CC490A2] (AR v1)
Copy OK
Track 5
Filename D:\zzz\05 - Non Sequitur.wav
Pre-gap length 0:00:01.00
Peak level 96.6 %
Extraction speed 6.8 X
Track quality 100.0 %
Test CRC DF1BA92E
Copy CRC DF1BA92E
Accurately ripped (confidence 1) [E1E8E541] (AR v1)
Copy OK
Track 6
Filename D:\zzz\06 - Tangram.wav
Pre-gap length 0:00:03.00
Peak level 96.6 %
Extraction speed 6.8 X
Track quality 100.0 %
Test CRC B21FF273
Copy CRC B21FF273
Accurately ripped (confidence 1) [58279444] (AR v1)
Copy OK
Track 7
Filename D:\zzz\07 - Without Words.wav
Pre-gap length 0:00:03.00
Peak level 96.6 %
Extraction speed 7.6 X
Track quality 100.0 %
Test CRC 861194E9
Copy CRC 861194E9
Accurately ripped (confidence 1) [C0CCE3AD] (AR v1)
Copy OK
Track 8
Filename D:\zzz\08 - Crucible , Woman.wav
Pre-gap length 0:00:04.00
Peak level 96.6 %
Extraction speed 8.3 X
Track quality 100.0 %
Test CRC 1550BFAB
Copy CRC 1550BFAB
Accurately ripped (confidence 1) [43B24225] (AR v1)
Copy OK
Track 9
Filename D:\zzz\09 - Dancing Shadows.wav
Pre-gap length 0:00:03.00
Peak level 96.6 %
Extraction speed 8.6 X
Track quality 100.0 %
Test CRC 95B8EECE
Copy CRC 95B8EECE
Accurately ripped (confidence 1) [72683479] (AR v1)
Copy OK
All tracks accurately ripped
No errors occurred
End of status report
==== Log checksum 3B076DC1D7082F38F8B8BD7B7D55C63F76B0E2A2D75795E8DE51ACACAD339160 ====
 
Содержание индексной карты (.CUE)
REM GENRE "Avant-Garde Jazz"
REM DATE 2002
REM DISCID 6F0DC209
REM COMMENT "ExactAudioCopy v1.0b3"
PERFORMER "Ken Filiano"
TITLE "Subvenire"
FILE "01 - Water Down Stone.wav" WAVE
TRACK 01 AUDIO
TITLE "Water Down Stone"
PERFORMER "Ken Filiano"
INDEX 01 00:00:00
TRACK 02 AUDIO
TITLE "Breathingdreaming"
PERFORMER "Ken Filiano"
INDEX 00 03:42:43
FILE "02 - Breathingdreaming.wav" WAVE
INDEX 01 00:00:00
TRACK 03 AUDIO
TITLE "Relay"
PERFORMER "Ken Filiano"
INDEX 00 07:33:00
FILE "03 - Relay.wav" WAVE
INDEX 01 00:00:00
TRACK 04 AUDIO
TITLE "Lucerne"
PERFORMER "Ken Filiano"
INDEX 00 05:44:20
FILE "04 - Lucerne.wav" WAVE
INDEX 01 00:00:00
TRACK 05 AUDIO
TITLE "Non Sequitur"
PERFORMER "Ken Filiano"
INDEX 00 05:45:34
FILE "05 - Non Sequitur.wav" WAVE
INDEX 01 00:00:00
TRACK 06 AUDIO
TITLE "Tangram"
PERFORMER "Ken Filiano"
INDEX 00 06:37:40
FILE "06 - Tangram.wav" WAVE
INDEX 01 00:00:00
TRACK 07 AUDIO
TITLE "Without Words"
PERFORMER "Ken Filiano"
INDEX 00 03:47:20
FILE "07 - Without Words.wav" WAVE
INDEX 01 00:00:00
TRACK 08 AUDIO
TITLE "Crucible / Woman"
PERFORMER "Ken Filiano"
INDEX 00 06:57:04
FILE "08 - Crucible , Woman.wav" WAVE
INDEX 01 00:00:00
TRACK 09 AUDIO
TITLE "Dancing Shadows"
PERFORMER "Ken Filiano"
INDEX 00 10:44:68
FILE "09 - Dancing Shadows.wav" WAVE
INDEX 01 00:00:00
 
Лог проверки качества
d:\>d:\aucdtect -d/-m0 d:\zzz\*.wav
auCDtect: CD records authenticity detector, version 0.8.2
Copyright (c) 2004 Oleg Berngardt. All rights reserved.
Copyright (c) 2004 Alexander Djourik. All rights reserved.
------------------------------------------------------------
Processing file: [01. Water Down Stone.wav]
------------------------------------------------------------
This track looks like CDDA with probability 99%
------------------------------------------------------------
Processing file: [02. Breathingdreaming.wav]
------------------------------------------------------------
This track looks like CDDA with probability 100%
------------------------------------------------------------
Processing file: [03. Relay.wav]
------------------------------------------------------------
This track looks like CDDA with probability 100%
------------------------------------------------------------
Processing file: [04. Lucerne.wav]
------------------------------------------------------------
This track looks like CDDA with probability 100%
------------------------------------------------------------
Processing file: [05. Non Sequitur.wav]
------------------------------------------------------------
This track looks like CDDA with probability 100%
------------------------------------------------------------
Processing file: [06. Tangram.wav]
------------------------------------------------------------
This track looks like CDDA with probability 100%
------------------------------------------------------------
Processing file: [07. Without Words.wav]
------------------------------------------------------------
This track looks like CDDA with probability 99%
------------------------------------------------------------
Processing file: [08. Crucible - Woman.wav]
------------------------------------------------------------
This track looks like CDDA with probability 100%
------------------------------------------------------------
Processing file: [09. Dancing Shadows.wav]
------------------------------------------------------------
This track looks like CDDA with probability 99%
------------------------------------------------------------
Final Conclusion:
------------------------------------------------------------
These tracks looks like CDDA with probability 100%
Доп. информация:
 
Album Info & AMG Review
All compositions by Ken Filiano except "Woman" by Bobby Bradford
Recorded 1/26/2002
Mixed & mastered 6/24 & 25/2002
Newzone Studio, Los Angeles
Wayne Peet: engineer
Produced by Vinny Golia & Ken Filiano
Design by Jeff Atherton & Vinny Golia
Tray photo by Andrea Wolper
Book photo by Oren Slor
Background photo by Neil France
It was time bassist Ken Filiano, a fixture of West Coast creative jazz and the trusty sideman of people like Vinny Golia, Paul Smoker, and Rob Blakeslee, finally tackled the neck-breaking feat that is a solo album. And he comes out of it a bigger man and musician. Subvenire, a misspelling of the French word "subvenir," to provide for (the needs of one's family, for example), is a strange, almost antinomic title: by definition, the solo album is the opposite of alimentary production, the project the artist is less likely to be willing to sacrifice his integrity over. Filiano delivers a solid hour of solo bass music, moving from creative jazz standards (Bobby Bradford's "Woman") to loose compositional structures and free improvisation. The album starts with "Water Down Stone," a mournful arco piece where Filiano saws earthshaking moans. "Relay" is a bouncier piece reminiscent of Dominic Duval's lighter side. In "Lucerne" and "Non Sequitur," the artist uses loops of prepared bass to add background textures to his soloing -- it works very well in the first track. The album closes with two highlights, a medley of Filiano's "Crucible" and the aforementioned "Woman," tenderly interpreted, plus the suitably jazzy and melodious "Dancing Shadows." There is strength of vision in Subvenire, an album that invites listeners to get up close and personal with a musician who should grab the spotlight more often.
 
Состав
Ken Filiano: bass, bells
По всем вопросам пишите личное сообщение пользователю M0p94ok.
00:02
153
Нет комментариев. Ваш будет первым!