Вы используете незарегистрированную версию компонента "Вкладки"!

Поиск

(Free Jazz, Avant-Garde Jazz, Nine Winds) [CD] Bonnie Barnett & Ken Filiano - Trio For Two - 2006, FLAC (tracks+.cue), lossless

(Free Jazz, Avant-Garde Jazz, Nine Winds) [CD] Bonnie Barnett & Ken Filiano - Trio For Two - 2006, FLAC (tracks+.cue), lossless
Треклист:
Bonnie Barnett & Ken Filiano / Trio For Two
Жанр: Free Jazz, Avant-Garde Jazz, Nine Winds
Носитель: CD
Страна-производитель диска: US
Год издания: 2006
Издатель (лейбл): 9 Winds Records
Номер по каталогу: NWCD0226
Страна: US
Аудиокодек: FLAC (*.flac)
Тип рипа: tracks+.cue
Битрейт аудио: lossless
Продолжительность: 52:10
Источник (релизер): свой фирменный диск
Наличие сканов в содержимом раздачи:
Треклист:
1. Boerum 4:32
2. Discreet Alliances 3:52
3. Verdigris 6:03
4. Aromas Of The Mind 4:31
5. After The Fall 9:49
6. Urgent Attitudes 9:29
7. Composition As Explanation 13:28
 
Лог создания рипа
Exact Audio Copy V1.0 beta 3 from 29. August 2011
EAC extraction logfile from 16. June 2014, 18:34
Bonnie Barnett & Ken Filiano / Trio For Two
Used drive : PIONEER DVD-RW DVR-115D Adapter: 0 ID: 0
Read mode : Secure
Utilize accurate stream : Yes
Defeat audio cache : Yes
Make use of C2 pointers : No
Read offset correction : 48
Overread into Lead-In and Lead-Out : No
Fill up missing offset samples with silence : Yes
Delete leading and trailing silent blocks : No
Null samples used in CRC calculations : Yes
Used interface : Installed external ASPI interface
Gap handling : Appended to previous track
Used output format : User Defined Encoder
Selected bitrate : 896 kBit/s
Quality : High
Add ID3 tag : No
Command line compressor : C:\Program Files\Exact Audio Copy\FLAC\FLAC.EXE
Additional command line options : -6 -V -T "ARTIST=%artist%" -T "TITLE=%title%" -T "ALBUM=%albumtitle%" -T "DATE=%year%" -T "TRACKNUMBER=%tracknr%" -T "GENRE=%genre%" -T "COMMENT=%comment%" -T "BAND=%albuminterpret%" -T "COMPOSER=%composer%" %haslyrics%--tag-from-file=LYRICS="%lyricsfile%"%haslyrics% -T "DISCNUMBER=%cdnumber%" -T "TOTALDISCS=%totalcds%" -T "TOTALTRACKS=%numtracks%" %hascover%--picture="%coverfile%"%hascover% %source% -o %dest%
TOC of the extracted CD
Track | Start | Length | Start sector | End sector
---------------------------------------------------------
1 | 0:00.00 | 4:34.63 | 0 | 20612
2 | 4:34.63 | 3:56.03 | 20613 | 38315
3 | 8:30.66 | 6:07.61 | 38316 | 65901
4 | 14:38.52 | 4:34.32 | 65902 | 86483
5 | 19:13.09 | 9:53.29 | 86484 | 130987
6 | 29:06.38 | 9:35.17 | 130988 | 174129
7 | 38:41.55 | 13:28.25 | 174130 | 234754
Track 1
Filename D:\zzz\01 - Boerum.wav
Pre-gap length 0:00:02.00
Peak level 99.1 %
Extraction speed 4.6 X
Track quality 100.0 %
Test CRC 44575D68
Copy CRC 44575D68
Track not present in AccurateRip database
Copy OK
Track 2
Filename D:\zzz\02 - Discreet Alliances.wav
Pre-gap length 0:00:04.00
Peak level 99.2 %
Extraction speed 4.4 X
Track quality 99.9 %
Test CRC 5A821DDE
Copy CRC 5A821DDE
Track not present in AccurateRip database
Copy OK
Track 3
Filename D:\zzz\03 - Verdigris.wav
Pre-gap length 0:00:04.00
Peak level 96.5 %
Extraction speed 5.3 X
Track quality 99.9 %
Test CRC 5F42F71D
Copy CRC 5F42F71D
Track not present in AccurateRip database
Copy OK
Track 4
Filename D:\zzz\04 - Aromas Of The Mind.wav
Pre-gap length 0:00:04.00
Peak level 99.6 %
Extraction speed 6.0 X
Track quality 100.0 %
Test CRC 8355F2E2
Copy CRC 8355F2E2
Track not present in AccurateRip database
Copy OK
Track 5
Filename D:\zzz\05 - After The Fall.wav
Pre-gap length 0:00:03.00
Peak level 98.6 %
Extraction speed 7.0 X
Track quality 100.0 %
Test CRC F8825E50
Copy CRC F8825E50
Track not present in AccurateRip database
Copy OK
Track 6
Filename D:\zzz\06 - Urgent Attitudes.wav
Pre-gap length 0:00:04.00
Peak level 98.1 %
Extraction speed 7.7 X
Track quality 100.0 %
Test CRC AC313C67
Copy CRC AC313C67
Track not present in AccurateRip database
Copy OK
Track 7
Filename D:\zzz\07 - Composition As Explanation.wav
Pre-gap length 0:00:06.00
Peak level 100.0 %
Extraction speed 8.5 X
Track quality 100.0 %
Test CRC 836AE559
Copy CRC 836AE559
Track not present in AccurateRip database
Copy OK
None of the tracks are present in the AccurateRip database
No errors occurred
End of status report
==== Log checksum A8F581A1A8F2C9A942FBEC736CEF5947DD234D4F2321BC9738B3346B6A851547 ====
 
Содержание индексной карты (.CUE)
REM GENRE "Free Improvisation"
REM DATE 2006
REM DISCID 530C3A07
REM COMMENT "ExactAudioCopy v1.0b3"
PERFORMER " Bonnie Barnett & Ken Filiano"
TITLE "Trio For Two"
FILE "01 - Boerum.wav" WAVE
TRACK 01 AUDIO
TITLE "Boerum"
PERFORMER " Bonnie Barnett & Ken Filiano"
FLAGS DCP
INDEX 01 00:00:00
TRACK 02 AUDIO
TITLE "Discreet Alliances"
PERFORMER " Bonnie Barnett & Ken Filiano"
FLAGS DCP
INDEX 00 04:30:63
FILE "02 - Discreet Alliances.wav" WAVE
INDEX 01 00:00:00
TRACK 03 AUDIO
TITLE "Verdigris"
PERFORMER " Bonnie Barnett & Ken Filiano"
FLAGS DCP
INDEX 00 03:52:03
FILE "03 - Verdigris.wav" WAVE
INDEX 01 00:00:00
TRACK 04 AUDIO
TITLE "Aromas Of The Mind"
PERFORMER " Bonnie Barnett & Ken Filiano"
FLAGS DCP
INDEX 00 06:03:61
FILE "04 - Aromas Of The Mind.wav" WAVE
INDEX 01 00:00:00
TRACK 05 AUDIO
TITLE "After The Fall"
PERFORMER " Bonnie Barnett & Ken Filiano"
FLAGS DCP
INDEX 00 04:31:32
FILE "05 - After The Fall.wav" WAVE
INDEX 01 00:00:00
TRACK 06 AUDIO
TITLE "Urgent Attitudes"
PERFORMER " Bonnie Barnett & Ken Filiano"
FLAGS DCP
INDEX 00 09:49:29
FILE "06 - Urgent Attitudes.wav" WAVE
INDEX 01 00:00:00
TRACK 07 AUDIO
TITLE "Composition As Explanation"
PERFORMER " Bonnie Barnett & Ken Filiano"
FLAGS DCP
INDEX 00 09:29:17
FILE "07 - Composition As Explanation.wav" WAVE
INDEX 01 00:00:00
 
Лог проверки качества
d:\>d:\aucdtect -d/-m0 d:\zzz\*.wav
auCDtect: CD records authenticity detector, version 0.8.2
Copyright (c) 2004 Oleg Berngardt. All rights reserved.
Copyright (c) 2004 Alexander Djourik. All rights reserved.
------------------------------------------------------------
Processing file: [01. Boerum.wav]
------------------------------------------------------------
This track looks like CDDA with probability 100%
------------------------------------------------------------
Processing file: [02. Discreet Alliances.wav]
------------------------------------------------------------
This track looks like CDDA with probability 100%
------------------------------------------------------------
Processing file: [03. Verdigris.wav]
------------------------------------------------------------
This track looks like CDDA with probability 100%
------------------------------------------------------------
Processing file: [04. Aromas Of The Mind.wav]
------------------------------------------------------------
This track looks like CDDA with probability 100%
------------------------------------------------------------
Processing file: [05. After The Fall.wav]
------------------------------------------------------------
This track looks like CDDA with probability 100%
------------------------------------------------------------
Processing file: [06. Urgent Attitudes.wav]
------------------------------------------------------------
This track looks like CDDA with probability 100%
------------------------------------------------------------
Processing file: [07. Composition As Explanation.wav]
------------------------------------------------------------
This track looks like CDDA with probability 99%
------------------------------------------------------------
Final Conclusion:
------------------------------------------------------------
These tracks looks like CDDA with probability 100%
Доп. информация:
 
Album Info
On 7., text is verbatim excerpt from 1926 essay by Gertrude Stein of the same title.
Recorded, mixed and mastered by Jim Clouse at Park West Studios, Brooklyn, NY
Produced by Ken Filiano and Bonnie Barnett
Cover painting - "Navajo, Gemsbok and Tassilli", watercolor collage (2000) by Ellen Van Fleet
Bonnie photo by John Kannofsky 2006
Ken photo by Luis Catarino 2005
Layout and design by Jeremy Drake
Liner notes: Michael Davis, writer for All About Jazz
 
Состав
Bonnie Barnett: vocals
Ken Filiano: double bass and effects
По всем вопросам пишите личное сообщение пользователю M0p94ok.
03:43
157
Нет комментариев. Ваш будет первым!