Вы используете незарегистрированную версию компонента "Вкладки"!

Поиск

(Avant-Garde Jazz, Nine Winds, Acoustic, Solo Guitar) [CD] Jim McAuley - Gongfarmer 18 - 2005, FLAC (tracks+.cue), lossless

(Avant-Garde Jazz, Nine Winds, Acoustic, Solo Guitar) [CD] Jim McAuley - Gongfarmer 18 - 2005, FLAC (tracks+.cue), lossless
Треклист:
Jim McAuley / Gongfarmer 18
Жанр: Avant-Garde Jazz, Nine Winds, Acoustic, Solo Guitar
Носитель: CD
Страна-производитель диска: US
Год издания: 2005
Издатель (лейбл): 9 Winds Records
Номер по каталогу: NWCD0236
Страна: US
Аудиокодек: FLAC (*.flac)
Тип рипа: tracks+.cue
Битрейт аудио: lossless
Продолжительность: 53:48
Источник (релизер): свой фирменный диск
Наличие сканов в содержимом раздачи:
Треклист:
1. Dark Blooming 5:46
2. Stately Chords 1:49
3. Blues For Wally Blanchette (1) 5:24
4. Eyelids Of Buddha 9:28
5. 1+2 4:37
6. Nika's Waltz 5:52
7. Kneebounce 5:21
8. Sulustar Sipsihiilere (Whisper Of Stars) 1:15
9. Before Thought 2:44
10. Blues For Wally Blanchette (2) 4:08
11. Stone Cone 7:20
 
Лог создания рипа
Exact Audio Copy V1.0 beta 3 from 29. August 2011
EAC extraction logfile from 15. June 2014, 19:14
Jim McAuley / Gongfarmer 18
Used drive : PIONEER DVD-RW DVR-115D Adapter: 0 ID: 0
Read mode : Secure
Utilize accurate stream : Yes
Defeat audio cache : Yes
Make use of C2 pointers : No
Read offset correction : 48
Overread into Lead-In and Lead-Out : No
Fill up missing offset samples with silence : Yes
Delete leading and trailing silent blocks : No
Null samples used in CRC calculations : Yes
Used interface : Installed external ASPI interface
Gap handling : Appended to previous track
Used output format : User Defined Encoder
Selected bitrate : 896 kBit/s
Quality : High
Add ID3 tag : No
Command line compressor : C:\Program Files\Exact Audio Copy\FLAC\FLAC.EXE
Additional command line options : -6 -V -T "ARTIST=%artist%" -T "TITLE=%title%" -T "ALBUM=%albumtitle%" -T "DATE=%year%" -T "TRACKNUMBER=%tracknr%" -T "GENRE=%genre%" -T "COMMENT=%comment%" -T "BAND=%albuminterpret%" -T "COMPOSER=%composer%" %haslyrics%--tag-from-file=LYRICS="%lyricsfile%"%haslyrics% -T "DISCNUMBER=%cdnumber%" -T "TOTALDISCS=%totalcds%" -T "TOTALTRACKS=%numtracks%" %hascover%--picture="%coverfile%"%hascover% %source% -o %dest%
TOC of the extracted CD
Track | Start | Length | Start sector | End sector
---------------------------------------------------------
1 | 0:00.00 | 5:46.00 | 0 | 25949
2 | 5:46.00 | 1:49.03 | 25950 | 34127
3 | 7:35.03 | 5:24.24 | 34128 | 58451
4 | 12:59.27 | 9:28.33 | 58452 | 101084
5 | 22:27.60 | 4:37.11 | 101085 | 121870
6 | 27:04.71 | 5:52.39 | 121871 | 148309
7 | 32:57.35 | 5:21.37 | 148310 | 172421
8 | 38:18.72 | 1:15.55 | 172422 | 178101
9 | 39:34.52 | 2:44.60 | 178102 | 190461
10 | 42:19.37 | 4:08.11 | 190462 | 209072
11 | 46:27.48 | 7:20.67 | 209073 | 242139
Track 1
Filename D:\zzz\01 - Dark Blooming.wav
Pre-gap length 0:00:02.00
Peak level 89.8 %
Extraction speed 4.5 X
Track quality 100.0 %
Test CRC 44AF2B1F
Copy CRC 44AF2B1F
Track not present in AccurateRip database
Copy OK
Track 2
Filename D:\zzz\02 - Stately Chords.wav
Pre-gap length 0:00:04.20
Peak level 85.7 %
Extraction speed 4.1 X
Track quality 100.0 %
Test CRC AF947236
Copy CRC AF947236
Track not present in AccurateRip database
Copy OK
Track 3
Filename D:\zzz\03 - Blues For Wally Blanchette (1).wav
Pre-gap length 0:00:04.21
Peak level 78.9 %
Extraction speed 5.4 X
Track quality 100.0 %
Test CRC CAE2BD88
Copy CRC CAE2BD88
Track not present in AccurateRip database
Copy OK
Track 4
Filename D:\zzz\04 - Eyelids Of Buddha.wav
Pre-gap length 0:00:02.17
Peak level 84.1 %
Extraction speed 6.3 X
Track quality 100.0 %
Test CRC 3C94390E
Copy CRC 3C94390E
Track not present in AccurateRip database
Copy OK
Track 5
Filename D:\zzz\05 - 1+2.wav
Pre-gap length 0:00:01.48
Peak level 94.2 %
Extraction speed 6.4 X
Track quality 100.0 %
Test CRC 5323200A
Copy CRC 5323200A
Track not present in AccurateRip database
Copy OK
Track 6
Filename D:\zzz\06 - Nika's Waltz.wav
Pre-gap length 0:00:04.24
Peak level 89.3 %
Extraction speed 6.9 X
Track quality 100.0 %
Test CRC 25C107AD
Copy CRC 25C107AD
Track not present in AccurateRip database
Copy OK
Track 7
Filename D:\zzz\07 - Kneebounce.wav
Pre-gap length 0:00:04.36
Peak level 96.6 %
Extraction speed 7.2 X
Track quality 100.0 %
Test CRC 2F9A5279
Copy CRC 2F9A5279
Track not present in AccurateRip database
Copy OK
Track 8
Filename D:\zzz\08 - Sulustar Sipsihiilere (Whisper Of Stars).wav
Pre-gap length 0:00:01.08
Peak level 50.8 %
Extraction speed 5.5 X
Track quality 100.0 %
Test CRC 948FACAA
Copy CRC 948FACAA
Track not present in AccurateRip database
Copy OK
Track 9
Filename D:\zzz\09 - Before Thought.wav
Pre-gap length 0:00:01.45
Peak level 94.3 %
Extraction speed 7.0 X
Track quality 100.0 %
Test CRC 8BB645D6
Copy CRC 8BB645D6
Track not present in AccurateRip database
Copy OK
Track 10
Filename D:\zzz\10 - Blues For Wally Blanchette (2).wav
Pre-gap length 0:00:04.34
Peak level 71.2 %
Extraction speed 7.5 X
Track quality 100.0 %
Test CRC 8221ACC2
Copy CRC 8221ACC2
Track not present in AccurateRip database
Copy OK
Track 11
Filename D:\zzz\11 - Stone Cone.wav
Pre-gap length 0:00:04.21
Peak level 61.5 %
Extraction speed 7.7 X
Track quality 99.9 %
Test CRC 3C51F615
Copy CRC 3C51F615
Track not present in AccurateRip database
Copy OK
None of the tracks are present in the AccurateRip database
No errors occurred
End of status report
==== Log checksum 0023CA930AB77661572DF5DA6FDFA576DDA02E252D8C2132DD6A60D7E3F0472E ====
 
Содержание индексной карты (.CUE)
REM GENRE "Free Improvisation"
REM DATE 2005
REM DISCID A80C9C0B
REM COMMENT "ExactAudioCopy v1.0b3"
PERFORMER "Jim McAuley"
TITLE "Gongfarmer 18"
FILE "01 - Dark Blooming.wav" WAVE
TRACK 01 AUDIO
TITLE "Dark Blooming"
PERFORMER "Jim McAuley"
INDEX 01 00:00:00
TRACK 02 AUDIO
TITLE "Stately Chords"
PERFORMER "Jim McAuley"
INDEX 00 05:41:55
FILE "02 - Stately Chords.wav" WAVE
INDEX 01 00:00:00
TRACK 03 AUDIO
TITLE "Blues For Wally Blanchette (1)"
PERFORMER "Jim McAuley"
INDEX 00 01:44:57
FILE "03 - Blues For Wally Blanchette (1).wav" WAVE
INDEX 01 00:00:00
TRACK 04 AUDIO
TITLE "Eyelids Of Buddha"
PERFORMER "Jim McAuley"
INDEX 00 05:22:07
FILE "04 - Eyelids Of Buddha.wav" WAVE
INDEX 01 00:00:00
TRACK 05 AUDIO
TITLE "1+2"
PERFORMER "Jim McAuley"
INDEX 00 09:26:60
FILE "05 - 1+2.wav" WAVE
INDEX 01 00:00:00
TRACK 06 AUDIO
TITLE "Nika's Waltz"
PERFORMER "Jim McAuley"
INDEX 00 04:32:62
FILE "06 - Nika's Waltz.wav" WAVE
INDEX 01 00:00:00
TRACK 07 AUDIO
TITLE "Kneebounce"
PERFORMER "Jim McAuley"
INDEX 00 05:48:03
FILE "07 - Kneebounce.wav" WAVE
INDEX 01 00:00:00
TRACK 08 AUDIO
TITLE "Sulustar Sipsihiilere (Whisper Of Stars)"
PERFORMER "Jim McAuley"
INDEX 00 05:20:29
FILE "08 - Sulustar Sipsihiilere (Whisper Of Stars).wav" WAVE
INDEX 01 00:00:00
TRACK 09 AUDIO
TITLE "Before Thought"
PERFORMER "Jim McAuley"
INDEX 00 01:14:10
FILE "09 - Before Thought.wav" WAVE
INDEX 01 00:00:00
TRACK 10 AUDIO
TITLE "Blues For Wally Blanchette (2)"
PERFORMER "Jim McAuley"
INDEX 00 02:40:26
FILE "10 - Blues For Wally Blanchette (2).wav" WAVE
INDEX 01 00:00:00
TRACK 11 AUDIO
TITLE "Stone Cone"
PERFORMER "Jim McAuley"
INDEX 00 04:03:65
FILE "11 - Stone Cone.wav" WAVE
INDEX 01 00:00:00
 
Лог проверки качества
d:\>d:\aucdtect -d/-m0 d:\zzz\*.wav
auCDtect: CD records authenticity detector, version 0.8.2
Copyright (c) 2004 Oleg Berngardt. All rights reserved.
Copyright (c) 2004 Alexander Djourik. All rights reserved.
------------------------------------------------------------
Processing file: [01. Dark Blooming.wav]
------------------------------------------------------------
This track looks like CDDA with probability 100%
------------------------------------------------------------
Processing file: [02. Stately Chords.wav]
------------------------------------------------------------
This track looks like CDDA with probability 92%
------------------------------------------------------------
Processing file: [03. Blues For Wally Blanchette (1).wav]
------------------------------------------------------------
This track looks like CDDA with probability 100%
------------------------------------------------------------
Processing file: [04. Eyelids Of Buddha.wav]
------------------------------------------------------------
This track looks like CDDA with probability 100%
------------------------------------------------------------
Processing file: [05. 1+2.wav]
------------------------------------------------------------
This track looks like CDDA with probability 99%
------------------------------------------------------------
Processing file: [06. Nika's Waltz.wav]
------------------------------------------------------------
This track looks like CDDA with probability 100%
------------------------------------------------------------
Processing file: [07. Kneebounce.wav]
------------------------------------------------------------
This track looks like CDDA with probability 100%
------------------------------------------------------------
Processing file: [08. Sulustar Sipsihiilere (Whisper Of Stars).wav]
------------------------------------------------------------
This track looks like CDDA with probability 100%
------------------------------------------------------------
Processing file: [09. Before Thought.wav]
------------------------------------------------------------
This track looks like CDDA with probability 100%
------------------------------------------------------------
Processing file: [10. Blues For Wally Blanchette (2).wav]
------------------------------------------------------------
This track looks like CDDA with probability 99%
------------------------------------------------------------
Processing file: [11. Stone Cone.wav]
------------------------------------------------------------
This track looks like CDDA with probability 100%
------------------------------------------------------------
Final Conclusion:
------------------------------------------------------------
These tracks looks like CDDA with probability 100%
Доп. информация:
 
Album Info & AMG Review
All music by Jim McAuley
Tracks 1,5,9 > Ramirez classical guitar
Tracks 2,4,6 > Guild 12 string guitar
Tracks 3,8,10,11 > Collings steel string guitar
Track 7 > Marquette prepared parlor guitar
no overdubs
Liner notes: Jim McAuley, Los Angeles, 2005
Recorded and mastered by Scott Fraser at Architecture, LA
6. recorded live at Line Space Line, LA
Booklet photo by Josh Menasch
Tray photo by Steve Elkins
CD package design by Kio Griffith
One of those forgotten American experimental musicians who had given up finding understanding in the pre-Internet age, Jim McAuley has recently resurfaced thanks to Nels Cline's work as a facilitator on the West Coast scene. Following the release of the Acoustic Guitar Trio's saluted album on Derek Bailey's Incus label, McAuley delivered this exquisite album of solo acoustic guitar. A collection of 11 pieces for classical, 12-string, steel string, and prepared parlor guitar, Gongfarmer 18 is a tribute to the guitarist's musicianship and imagination, both wild. All but one of these pieces are composed, at least in part. McAuley's writing draws strongly from the folk guitar tradition, but reconfigures its references with elements from contemporary music and free improvisation. The result brings to mind the rootsy experimental tinge of John Fahey, the virtuosic sleekness of early Anthony Phillips, and the good-humored inventions of Daniel Heïkalo and Arthur Bull. By all means, this music should be difficult for the listener, but it's not. McAuley invests so much feeling in his writing and there is such truth in the performances that one cannot help being moved by the unusual melodicism of these tunes. The tender "Nika's Waltz," the Segovia-like "Stone Cone," and the two rootsy "Blues for Wally Blanchette" (tributes to free jazz legend John Carter) have an immediate quality to them that acoustic guitar fans from any horizon should be able to appreciate. The other pieces are just as gorgeous, but they do require more intensive listens and an open mind. Heartily recommended.
 
Состав
Jim McAuley: acoustic guitars
По всем вопросам пишите личное сообщение пользователю M0p94ok.
03:42
139
Нет комментариев. Ваш будет первым!